<?xml version="1.0" standalone="no"?>
<!DOCTYPE svg PUBLIC "-//W3C//DTD SVG 1.1//EN" "http://www.w3.org/Graphics/SVG/1.1/DTD/svg11.dtd" >
<svg>
<metadata>
Created by FontForge 20120731 at Mon Jun  4 07:59:34 2018
 By www-data
Copyright (c) 2013 by Antonio Pace/RML Types. All rights reserved.
</metadata>
<defs>
<font id="MilanType-Regular" horiz-adv-x="1142" >
  <font-face 
    font-family="MilanType"
    font-weight="400"
    font-stretch="normal"
    units-per-em="2048"
    panose-1="2 5 6 3 7 4 5 2 7 4"
    ascent="1597"
    descent="-451"
    x-height="1065"
    cap-height="1434"
    bbox="-86 -440 1858 1868"
    underline-thickness="61"
    underline-position="-144"
    unicode-range="U+0020-FB04"
  />
<missing-glyph horiz-adv-x="748" 
d="M68 0v1365h544v-1365h-544zM136 68h408v1229h-408v-1229z" />
    <glyph glyph-name="percent" unicode="&#x30;&#x2f;&#x30;" horiz-adv-x="1736" 
d="M102 1049q0 94 13.5 170.5t48.5 129t95.5 81t154.5 28.5t154.5 -28.5t95 -81t49 -129t14.5 -170.5q0 -90 -13.5 -165t-48 -128.5t-95 -83t-154.5 -29.5t-154.5 29.5t-96.5 83t-49.5 128t-13.5 165.5zM258 1051q0 -96 8 -162t26.5 -105t48.5 -55t73 -16q90 0 127 75.5
t37 262.5q0 88 -6.5 153.5t-23 106.5t-48 61.5t-82.5 20.5t-83 -20.5t-48.5 -61.5t-22.5 -106.5t-6 -153.5zM418 0l776 1458h133l-774 -1458h-135zM1010 381q0 94 13 171t48 129t95.5 81t154.5 29t154.5 -29t95.5 -81t49 -129t14 -171q0 -90 -13 -165t-48 -128t-95.5 -83
t-154.5 -30t-154.5 30t-96.5 83t-49 128t-13 165zM1165 383q0 -96 8.5 -161.5t27 -104.5t48 -55.5t72.5 -16.5q90 0 127 76t37 262q0 88 -6 153.5t-22.5 106.5t-48.5 61.5t-83 20.5t-83 -20.5t-48 -61.5t-22.5 -106.5t-6.5 -153.5z" />
    <glyph glyph-name="onequarter" unicode="&#x31;&#x2f;&#x34;" horiz-adv-x="1431" 
d="M102 1352v59l344 47v-803h-180v33q27 0 27 25v661zM262 0l776 1458h133l-774 -1458h-135zM745 184v47l304 560h149l-319 -533h284v231h156v-489h-182v33q27 0 26 24v127h-418z" />
    <glyph glyph-name="onehalf" unicode="&#x31;&#x2f;&#x32;" horiz-adv-x="1552" 
d="M102 1352v59l344 47v-803h-180v33q27 0 27 25v661zM262 0l776 1458h133l-774 -1458h-135zM899 0v100q43 27 107.5 72t126 106.5t105.5 138.5t44 165q0 72 -30.5 115.5t-127.5 43.5q-47 0 -78.5 -3t-66.5 -11q-10 0 -10 -18h-39v65q57 12 114.5 20.5t96.5 8.5
q158 0 230.5 -51.5t72.5 -176.5q0 -74 -40 -142t-100.5 -128.5t-128 -109t-122.5 -80.5h346q18 0 18 18h33v-133h-551z" />
    <glyph glyph-name="threequarters" unicode="&#x33;&#x2f;&#x34;" horiz-adv-x="1568" 
d="M102 670v55q43 -10 80 -15t70 -5q125 0 176 47t51 139q0 31 -10 61.5t-34.5 53t-64.5 37t-100 14.5v67q41 0 73 15.5t54.5 40t34.5 54.5t12 58q0 20 -5 40t-20.5 34t-44 22.5t-73.5 8.5q-35 0 -66.5 -4t-60.5 -11q-14 -2 -14 -18h-41v66q43 10 107.5 19t123.5 9
q147 0 200.5 -42t53.5 -128q0 -76 -48 -127t-159 -67q121 -6 186.5 -53.5t65.5 -159.5q0 -74 -29.5 -120t-77.5 -72.5t-107.5 -37t-119.5 -10.5q-61 0 -111 7t-102 22zM399 0l777 1458h133l-774 -1458h-136zM883 184v47l303 560h149l-319 -533h284v231h156v-489h-182v33
q27 0 26 24v127h-417z" />
    <glyph glyph-name="ellipsis" unicode="&#x2e;&#x2e;&#x2e;" horiz-adv-x="1310" 
d="M90 102q0 59 34 93t93 34t93 -33.5t34 -93.5q0 -59 -34 -93t-93 -34t-93 34t-34 93zM528 102q0 59 34 93t93 34t93 -33.5t34 -93.5q0 -59 -33.5 -93t-93.5 -34q-59 0 -93 34t-34 93zM967 102q0 59 33.5 93t93.5 34q59 0 93 -33.5t34 -93.5q0 -59 -34 -93t-93 -34t-93 34
t-34 93z" />
    <glyph glyph-name="uniFB01" unicode="fi" horiz-adv-x="1155" 
d="M127 0v45q16 0 30.5 12.5t14.5 38.5v1182q0 84 47 138t117 83q59 23 142 30t181 7q78 0 126.5 -3t77 -7t44 -10.5t27.5 -12.5q57 -35 57 -112q0 -61 -35.5 -97.5t-97.5 -36.5q-61 0 -97 36t-36 98v22t4 23q-29 4 -60.5 4h-76.5q-63 0 -105.5 -12.5t-67 -33t-33.5 -47
t-9 -55.5v-227h606v-979q0 -23 13.5 -32t29.5 -9v-45h-293v45q16 0 30.5 12.5t14.5 38.5v879h-401v-881q0 -25 13 -37t30 -12v-45h-293z" />
    <glyph glyph-name="uniFB02" unicode="fl" horiz-adv-x="1198" 
d="M127 0v45q16 0 30.5 12.5t14.5 38.5v1190q0 78 48 131t116 82q59 23 137 30t176 7q55 0 94 -2l78 -4q61 -4 111.5 -9t89.5 -10v-1290q0 -59 16.5 -93t59.5 -34v-108q-135 0 -208 64.5t-73 174.5v1205q-35 2 -83 5t-107 3q-51 0 -96.5 -4t-75.5 -19q-43 -20 -60.5 -50
t-17.5 -65v-235h303v-90h-303v-881q0 -25 13 -37t30 -12v-45h-293z" />
    <glyph glyph-name=".notdef" horiz-adv-x="748" 
d="M68 0v1365h544v-1365h-544zM136 68h408v1229h-408v-1229z" />
    <glyph glyph-name="glyph1" horiz-adv-x="0" 
 />
    <glyph glyph-name="glyph2" horiz-adv-x="682" 
 />
    <glyph glyph-name="space" unicode=" " horiz-adv-x="491" 
 />
    <glyph glyph-name="exclam" unicode="!" horiz-adv-x="544" 
d="M152 1434h241l-43 -1102h-155zM162 88q0 53 29.5 83t82.5 30t83 -30t30 -83t-29.5 -83t-83.5 -30q-53 0 -82.5 30t-29.5 83z" />
    <glyph glyph-name="quotedbl" unicode="&#x22;" horiz-adv-x="481" 
d="M18 1130v379h185l-64 -379h-121zM272 1130v379h185l-64 -379h-121z" />
    <glyph glyph-name="numbersign" unicode="#" horiz-adv-x="1331" 
d="M20 350l15 117h348l35 295h-350l14 117h350l43 350h117l-43 -350h295l43 350h117l-43 -350h350l-15 -117h-350l-35 -295h351l-15 -117h-350l-43 -350h-117l43 350h-295l-43 -350h-116l43 350h-349zM500 467h295l34 295h-294z" />
    <glyph glyph-name="dollar" unicode="$" horiz-adv-x="1116" 
d="M111 1001q0 94 32.5 161t87 112t123 69.5t142.5 34.5v101h116v-95q49 0 88 -4t75 -10t71 -14t76 -19v-114h-56q-6 20 -28.5 36.5t-56 27.5t-74.5 17.5t-86 6.5h-9v-475l86 -25q160 -47 234 -145.5t74 -219.5q0 -201 -105.5 -319.5t-288.5 -142.5v-99h-116v90
q-51 0 -91 4.5t-77 10.5t-72 15t-78 22v114q63 -23 147.5 -40t170.5 -19v528l-134 41q-113 35 -182 122t-69 228zM326 1087q0 -80 33.5 -132t89.5 -68l47 -15v420q-90 -27 -130 -85.5t-40 -119.5zM612 96q80 27 126 90.5t46 149.5q0 70 -39.5 138.5t-132.5 100.5v-479z" />
    <glyph glyph-name="ampersand" unicode="&#x26;" horiz-adv-x="1484" 
d="M125 383q0 150 64.5 251t228.5 161q-88 66 -127 145.5t-39 183.5q0 176 94 254t311 80q25 0 54.5 -1t58.5 -3v-125h-57q0 33 -41 33q-51 0 -85 -10.5t-55.5 -38t-30.5 -73.5t-9 -116q0 -84 19 -155.5t79 -137.5l450 -493q35 47 56.5 122t21.5 163q0 98 -24.5 194
t-59.5 158h-235v90h610l-29 -90h-229q10 -25 22.5 -60.5t23.5 -81t18.5 -96.5t7.5 -102q0 -106 -21.5 -207.5t-73.5 -179.5l228 -248h-178l-138 145q-90 -92 -199.5 -131t-224.5 -39q-86 0 -174 25t-158.5 76t-114.5 128t-44 179zM397 430q0 -66 12.5 -125t41 -103t78 -70
t120.5 -26q98 0 181 33t131 90l-463 500q-29 -31 -48.5 -59.5t-30.5 -63.5t-16.5 -78t-5.5 -98z" />
    <glyph glyph-name="quotesingle" unicode="'" horiz-adv-x="227" 
d="M18 1130v379h185l-64 -379h-121z" />
    <glyph glyph-name="parenleft" unicode="(" horiz-adv-x="583" 
d="M70 625q0 137 24.5 261t65.5 235.5t92 208.5t104 179h125q-53 -96 -104 -193t-92 -204.5t-66.5 -227.5t-25.5 -261q0 -139 25.5 -260t66.5 -228.5t92 -205t104 -189.5h-121q-53 82 -105 179t-93 209t-66.5 236.5t-25.5 260.5z" />
    <glyph glyph-name="parenright" unicode=")" horiz-adv-x="583" 
d="M102 -260q53 92 104.5 189.5t92.5 205t66.5 228t25.5 260.5q0 141 -25.5 261t-66.5 227.5t-92 204.5t-105 193h125q53 -82 104.5 -179t92.5 -208.5t65.5 -235.5t24.5 -261q0 -135 -25.5 -260t-66.5 -237t-93.5 -209t-105.5 -179h-121z" />
    <glyph glyph-name="asterisk" unicode="*" horiz-adv-x="811" 
d="M70 1227l34 108l244 -80v256h115v-256l244 80l34 -108l-243 -80l149 -207l-92 -68l-149 207l-150 -205l-94 66l151 207z" />
    <glyph glyph-name="plus" unicode="+" 
d="M111 557v117h401v401h117v-401h403v-117h-403v-403h-117v403h-401z" />
    <glyph glyph-name="comma" unicode="," horiz-adv-x="456" 
d="M90 -256q23 18 46.5 42t43 51.5t31.5 58t12 63.5q0 10 -2 20.5t-6 20.5q-47 0 -85 26.5t-38 94.5q0 37 13.5 59.5t33 36.5t42 19.5t40.5 5.5q78 0 112 -52.5t34 -134.5q0 -63 -20.5 -118.5t-54.5 -101.5t-77 -84t-86 -66z" />
    <glyph glyph-name="hyphen" unicode="-" horiz-adv-x="819" 
d="M111 555v164h598v-164h-598z" />
    <glyph glyph-name="period" unicode="." horiz-adv-x="434" 
d="M90 102q0 59 34 93t93 34t93 -33.5t34 -93.5q0 -59 -34 -93t-93 -34t-93 34t-34 93z" />
    <glyph glyph-name="slash" unicode="/" horiz-adv-x="770" 
d="M41 -76l563 1585h125l-559 -1585h-129z" />
    <glyph glyph-name="zero" unicode="0" 
d="M68 680q0 162 21.5 293t77.5 222t154 140t250 49q150 0 248.5 -49t154.5 -140t78.5 -222t22.5 -293q0 -158 -21.5 -287t-77.5 -221t-153.5 -143.5t-249.5 -51.5t-250 51.5t-154 143.5t-78.5 221t-22.5 287zM305 680q0 -176 14.5 -294t45 -188.5t81 -101t123.5 -30.5
q76 0 129.5 32.5t86 106.5t47 190.5t14.5 284.5q0 162 -9.5 279.5t-38 193.5t-82 113t-141.5 37t-141 -37t-81.5 -113t-38 -193.5t-9.5 -279.5z" />
    <glyph glyph-name="one" unicode="1" 
d="M225 1214v91l553 79v-1384h-284v45q16 0 30.5 11.5t14.5 37.5v1159z" />
    <glyph glyph-name="two" unicode="2" 
d="M113 0v164q47 31 113.5 77t138 105.5t143.5 131t129 154.5t92 177t35 199q0 63 -12.5 116.5t-44 90t-86 57t-136.5 20.5q-78 0 -132 -7t-113 -19q-23 -6 -23 -31h-57v104q45 10 94 18.5t96 14.5t90 9t74 3q260 0 381 -87t121 -300q0 -131 -71 -252.5t-175 -228
t-221 -190.5t-209 -140h614q16 0 23.5 10.5t7.5 20.5h43v-217h-915z" />
    <glyph glyph-name="three" unicode="3" 
d="M131 23v83q66 -16 125 -24t113 -8q207 2 293 85t86 244q0 57 -18.5 110.5t-58.5 94.5t-105.5 66.5t-159.5 25.5v103q66 0 117.5 27.5t88.5 71.5t56.5 97.5t19.5 106.5q0 37 -9 71.5t-35 60.5t-73 41t-122 15q-55 0 -106.5 -9t-104.5 -19q-27 -6 -27 -31h-57v104
q33 8 77.5 16.5t94 14.5t102.5 10t102 4q119 0 198 -17t126 -53t65.5 -90.5t18.5 -127.5q0 -133 -85 -220.5t-286 -113.5v-8q106 -4 188.5 -23.5t138.5 -62.5t86 -113t30 -170q0 -123 -47.5 -203t-123 -125t-172 -62.5t-194.5 -17.5q-102 0 -182 11.5t-160 34.5z" />
    <glyph glyph-name="four" unicode="4" 
d="M100 322v75l492 965h229l-522 -926h502v402h239v-838h-284v45q16 0 30.5 11.5t14.5 37.5v228h-701z" />
    <glyph glyph-name="five" unicode="5" 
d="M115 37v96q84 -27 160.5 -42t154.5 -15q96 0 160.5 26.5t104.5 74.5t56.5 114.5t16.5 144.5q0 168 -81 247t-241 79q-61 0 -128.5 -5t-137.5 -22l-33 35l41 592h742v-221h-41q0 16 -12.5 26.5t-34.5 10.5h-561l-21 -342q55 10 130 16t161 6q117 0 207 -36t149.5 -95
t90 -137t30.5 -160q0 -207 -124 -330t-374 -123q-74 0 -130 4.5t-103 12.5t-91 19.5t-91 23.5z" />
    <glyph glyph-name="six" unicode="6" 
d="M70 442q0 78 29.5 163t100 192.5t189.5 245t297 319.5h148l-363 -522q76 31 156 30q94 0 176 -32.5t141.5 -88t94 -131t34.5 -161.5q0 -242 -126 -361t-351 -119q-139 0 -238.5 32t-164 92.5t-94 146.5t-29.5 194zM309 414q0 -178 66.5 -266.5t195.5 -88.5
q59 0 107.5 19.5t81.5 62.5t50 112t17 169q0 86 -21.5 150.5t-58 108.5t-86 66.5t-104.5 22.5q-121 0 -184.5 -87t-63.5 -269z" />
    <glyph glyph-name="seven" unicode="7" 
d="M143 1139v223h856v-127l-456 -1235h-256l536 1178h-592q-23 0 -35 -11.5t-12 -27.5h-41z" />
    <glyph glyph-name="eight" unicode="8" 
d="M88 348q0 141 68.5 225t183.5 119q-100 47 -154.5 132t-54.5 200q0 86 36 152.5t97.5 112.5t141 70.5t167.5 24.5t168 -24.5t140.5 -70.5t96.5 -112.5t36 -152.5q0 -115 -54.5 -200t-152.5 -132q113 -35 180.5 -119t67.5 -225q0 -176 -128 -273.5t-354 -97.5
q-227 0 -356 97.5t-129 273.5zM319 362q0 -61 15.5 -116.5t46.5 -96t78.5 -64.5t113.5 -24t114 24t79 64.5t45 96t14 116.5q0 135 -65.5 214t-186.5 79q-123 0 -188.5 -78.5t-65.5 -214.5zM371 1006q0 -47 12 -94.5t37.5 -87.5t63.5 -65.5t89 -25.5t89 25.5t63 64.5t37 87
t12 96q0 162 -47 233.5t-154 71.5q-111 0 -156.5 -72t-45.5 -233z" />
    <glyph glyph-name="nine" unicode="9" 
d="M76 909q0 88 29.5 173t90 153t151.5 108.5t212 40.5q135 0 231.5 -34.5t157 -96t89 -146.5t28.5 -183q0 -111 -41 -217.5t-121 -218t-194.5 -231.5t-262.5 -257h-147l363 524q-25 -14 -59 -22t-64 -8q-119 0 -206 31.5t-144.5 88t-85 132t-27.5 163.5zM305 944
q0 -86 21.5 -150.5t58.5 -108.5t86 -66.5t104 -22.5q47 0 92.5 21.5t80 65.5t56 111.5t21.5 157.5q0 178 -57 263t-207 85q-123 0 -189.5 -87t-66.5 -269z" />
    <glyph glyph-name="colon" unicode=":" horiz-adv-x="466" 
d="M113 102q0 59 33.5 93t93.5 34q59 0 93 -33.5t34 -93.5q0 -59 -34 -93t-93 -34t-93 34t-34 93zM113 942q0 59 33.5 93t93.5 34q59 0 93 -34t34 -93t-34 -93t-93 -34t-93 34t-34 93z" />
    <glyph glyph-name="semicolon" unicode=";" horiz-adv-x="489" 
d="M113 -256q23 18 46 42t42.5 51.5t32 58t12.5 63.5q0 10 -2 20.5t-6 20.5q-47 0 -85 26.5t-38 94.5q0 37 13 59.5t32.5 36.5t42 19.5t41.5 5.5q78 0 111.5 -52.5t33.5 -134.5q0 -63 -20.5 -118.5t-54 -101.5t-76.5 -84t-86 -66zM123 942q0 59 33.5 93t93.5 34q59 0 93 -34
t34 -93t-34 -93t-93 -34t-93 34t-34 93z" />
    <glyph glyph-name="less" unicode="&#x3c;" 
d="M111 563v133l921 381v-125l-790 -325l790 -348v-127z" />
    <glyph glyph-name="equal" unicode="=" 
d="M111 401v117h921v-117h-921zM111 711v116h921v-116h-921z" />
    <glyph glyph-name="greater" unicode="&#x3e;" 
d="M111 152v127l790 348l-790 325v125l921 -381v-133z" />
    <glyph glyph-name="question" unicode="?" horiz-adv-x="860" 
d="M70 1296v76q86 43 173 64.5t171 21.5q78 0 146.5 -14t119.5 -50t81 -98.5t30 -160.5q0 -109 -46.5 -173.5t-109.5 -107.5l-203 -139q-53 -37 -63.5 -82t-10.5 -86v-191h-157v207q0 59 9 107.5t48 85.5l184 176q47 45 78 102.5t31 120.5q0 131 -35 179t-119 48
q-76 0 -137 -15t-115 -38q-12 -4 -15 -13t-3 -20h-57zM162 88q0 53 29.5 83t82.5 30t83 -30t30 -83t-30 -83t-83 -30t-82.5 30t-29.5 83z" />
    <glyph glyph-name="at" unicode="@" horiz-adv-x="1974" 
d="M205 -6v1016q0 98 27.5 177t77.5 134t119 84t153 29h809q102 0 173.5 -31t118 -86t66.5 -134t20 -173v-936h-376q-96 0 -143.5 35.5t-59.5 66.5q-35 -20 -93.5 -46t-135.5 -26q-74 0 -139.5 11.5t-112.5 41t-75 81t-28 131.5q0 131 109.5 197.5t290.5 66.5h147v164
q0 84 -40 119.5t-120 35.5q-113 0 -172 -10t-65 -53h-64v119q43 4 91 8t94.5 7t83 5t57.5 2q162 0 235.5 -65.5t73.5 -186.5v-506q0 -41 24.5 -72.5t65.5 -31.5h213v838q0 82 -14 144t-49 103t-93.5 61.5t-144.5 20.5h-686q-150 0 -224.5 -78.5t-74.5 -250.5v-986
q0 -303 299 -303h694v-100h-755q-84 0 -153 27.5t-119 78t-77.5 119t-27.5 152.5zM782 362q0 -53 15.5 -87.5t40 -56t58.5 -31t71 -9.5q51 0 104 20.5t82 43.5v323q-86 0 -155.5 -8t-116.5 -31.5t-73 -62.5t-26 -101z" />
    <glyph glyph-name="A" unicode="A" horiz-adv-x="1333" 
d="M0 0l139 356h129l-102 -258q-6 -12 -6 -24q0 -29 30 -29l-8 -45h-182zM186 475l377 959h195l516 -1342q10 -23 22.5 -35t36.5 -12v-45h-311l-430 1165l-275 -690h-131z" />
    <glyph glyph-name="B" unicode="B" horiz-adv-x="1320" 
d="M147 1389v45h533q227 0 327.5 -76t100.5 -248q0 -135 -61.5 -215t-196.5 -86q76 -4 141.5 -36t113.5 -83t74.5 -119.5t26.5 -144.5q0 -109 -30.5 -189.5t-86 -133t-130 -78t-162.5 -25.5h-604v1337q0 27 -13.5 39.5t-32.5 12.5zM444 111h197q57 0 110.5 19.5t93.5 60
t63.5 106t23.5 156.5q0 51 -17.5 107t-51.5 103.5t-84 77t-117 29.5v53q49 0 84.5 22.5t60 60.5t36 86t11.5 98q0 129 -40 181t-152 52h-218v-1212z" />
    <glyph glyph-name="C" unicode="C" horiz-adv-x="1224" 
d="M111 717q0 154 29.5 289t101 235t191.5 158.5t302 58.5q106 0 197.5 -13t193.5 -40v-121h-57q-27 45 -94.5 66.5t-147.5 21.5q-98 0 -169.5 -20.5t-123 -64.5t-83 -116.5t-48.5 -177.5q-10 -57 -12 -124.5t-2 -151.5q0 -127 14.5 -228.5t49.5 -179.5q47 -113 144 -169
t214 -56t172 25.5t88 78.5h41v-176q-51 -10 -94 -16t-87 -11t-94.5 -7.5t-115.5 -2.5q-156 0 -270.5 37t-190.5 124t-112.5 229.5t-36.5 351.5z" />
    <glyph glyph-name="D" unicode="D" horiz-adv-x="1404" 
d="M147 1389v45h504q178 0 300 -39t196 -124t105.5 -221.5t31.5 -332.5q0 -221 -47 -360.5t-136 -219.5t-217 -108.5t-290 -28.5h-401v1337q0 27 -13.5 39.5t-32.5 12.5zM444 111h209q125 0 196 61t105.5 152.5t44 197t9.5 195.5q0 119 -10.5 228.5t-45 194.5t-102.5 136
t-182 51h-224v-1216z" />
    <glyph glyph-name="E" unicode="E" horiz-adv-x="1067" 
d="M147 1389v45h809v-111h-512v-457h330v-102h-330v-653h560v-111h-811v1337q0 27 -13.5 39.5t-32.5 12.5z" />
    <glyph glyph-name="F" unicode="F" horiz-adv-x="995" 
d="M147 1389v45h830v-111h-531v-457h400v-100h-400v-766h-253v1337q0 27 -13.5 39.5t-32.5 12.5z" />
    <glyph glyph-name="G" unicode="G" horiz-adv-x="1398" 
d="M121 717q0 154 29.5 289t101.5 235t192.5 158.5t303.5 58.5q106 0 197 -13t194 -40v-121h-58q-27 45 -94 66.5t-147 21.5q-98 0 -170 -20.5t-123 -64.5t-84 -116.5t-49 -177.5q-10 -57 -12.5 -124.5t-2.5 -151.5q0 -127 11.5 -228.5t44.5 -179.5q29 -72 65.5 -118
t79.5 -72.5t90 -37.5t96 -11q88 0 168 24v684q0 27 -13 39t-32 12v45h297v-821q-100 -35 -221 -56.5t-252 -21.5q-156 0 -270.5 37t-190 124t-113.5 229.5t-38 351.5z" />
    <glyph glyph-name="H" unicode="H" horiz-adv-x="1529" 
d="M147 1389v45h295v-568h645v471q0 27 -13 39.5t-32 12.5v45h295v-1434h-250v764h-645v-764h-249v1337q0 27 -13.5 39.5t-32.5 12.5z" />
    <glyph glyph-name="I" unicode="I" horiz-adv-x="636" 
d="M147 1389v45h297v-1434h-251v1337q0 27 -13.5 39.5t-32.5 12.5z" />
    <glyph glyph-name="J" unicode="J" horiz-adv-x="817" 
d="M-20 8v166h40q6 -29 15.5 -48.5t30 -30.5t54.5 -16t89 -5q37 0 67.5 12t52 46t33 90.5t11.5 146.5v968q0 27 -13.5 39.5t-31.5 12.5v45h297v-1033q0 -119 -17.5 -200.5t-57.5 -132t-102.5 -72t-152.5 -21.5q-43 0 -77 1t-69.5 5.5t-75.5 10.5t-93 16z" />
    <glyph glyph-name="K" unicode="K" horiz-adv-x="1302" 
d="M147 1389v45h297v-1434h-251v1337q0 27 -13.5 39.5t-32.5 12.5zM535 676v155l477 506q12 14 12 25q0 27 -43 27v45h274l-538 -570l586 -864h-316z" />
    <glyph glyph-name="L" unicode="L" horiz-adv-x="1095" 
d="M147 1389v45h297v-1330h394q25 0 50 6.5t49 20.5t41 38t26 58h112l-51 -227h-872v1337q0 27 -13.5 39.5t-32.5 12.5z" />
    <glyph glyph-name="M" unicode="M" horiz-adv-x="1837" 
d="M147 1389v45h345l452 -1080l379 1080h367v-45q-18 0 -31.5 -12.5t-13.5 -39.5v-1241q0 -27 14 -39t31 -12v-45h-297v1260l-453 -1260h-121l-502 1194v-1106q0 -23 14.5 -33t30.5 -10v-45h-169v1337q0 27 -13.5 39.5t-32.5 12.5z" />
    <glyph glyph-name="N" unicode="N" horiz-adv-x="1484" 
d="M147 1389v45h244l776 -1086v998q0 23 -14 33t-31 10v45h170v-1434h-202l-773 1104v-1016q0 -23 14.5 -33t30.5 -10v-45h-169v1337q0 27 -13.5 39.5t-32.5 12.5z" />
    <glyph glyph-name="O" unicode="O" horiz-adv-x="1433" 
d="M111 717q0 383 149.5 562t456.5 179t456.5 -179t149.5 -562q0 -385 -149.5 -563.5t-456.5 -178.5t-456.5 178.5t-149.5 563.5zM389 717q0 -195 22.5 -321t64.5 -198.5t102.5 -100t138.5 -27.5q76 0 137 27.5t103 100t64.5 198.5t22.5 321t-22.5 320.5t-64.5 198.5
t-103 100.5t-137 27.5q-78 0 -138.5 -27.5t-102.5 -100.5t-64.5 -199t-22.5 -320z" />
    <glyph glyph-name="P" unicode="P" horiz-adv-x="1224" 
d="M147 1389v45h553q227 0 331 -98.5t104 -295.5q0 -78 -21.5 -149.5t-68 -126.5t-122 -88t-182.5 -33h-73v62q100 0 149 74.5t49 262.5q0 129 -43 205t-155 76h-224v-1323h-251v1337q0 27 -13.5 39.5t-32.5 12.5z" />
    <glyph glyph-name="Q" unicode="Q" horiz-adv-x="1433" 
d="M111 717q0 383 149.5 562t456.5 179t456.5 -179t149.5 -562q0 -385 -149.5 -563.5t-456.5 -178.5t-456.5 178.5t-149.5 563.5zM389 717q0 -195 22.5 -321t65.5 -198.5t104.5 -100t139.5 -27.5q76 0 136.5 27.5t102 100t63 198.5t21.5 321t-21.5 320.5t-63 198.5
t-102 100.5t-136.5 27.5q-78 0 -139.5 -27.5t-104.5 -100.5t-65.5 -199t-22.5 -320zM672 -76h579v-125h-579v125z" />
    <glyph glyph-name="R" unicode="R" horiz-adv-x="1273" 
d="M147 1389v45h455q100 0 193.5 -11.5t165 -48.5t115.5 -105.5t44 -183.5q0 -125 -65.5 -223t-210.5 -133l368 -729h-294l-336 717l59 61q57 6 100 31t71 61.5t41 82.5t13 96q0 156 -63.5 215t-200.5 59h-158v-1323h-251v1337q0 27 -13.5 39.5t-32.5 12.5z" />
    <glyph glyph-name="S" unicode="S" horiz-adv-x="1138" 
d="M102 1049q0 115 45.5 192.5t118 125.5t161.5 69.5t175 21.5q57 0 102.5 -3t85 -9t78.5 -15.5t86 -21.5v-121h-57q-6 20 -29.5 36.5t-58.5 27t-79 15.5t-91 5q-51 0 -106.5 -10t-100.5 -37t-74.5 -74t-29.5 -121t36.5 -121.5t92.5 -64.5l264 -84q166 -53 243.5 -152.5
t77.5 -230.5q0 -119 -35.5 -212t-103 -157.5t-164 -98.5t-215.5 -34q-59 0 -105 3.5t-87 9.5t-82 16t-88 25v121q70 -25 169 -43.5t193 -18.5q63 0 116.5 20.5t91.5 56.5t58.5 85t20.5 104q0 78 -47 149.5t-154 104.5l-243 76q-123 39 -194 130t-71 235z" />
    <glyph glyph-name="T" unicode="T" horiz-adv-x="1021" 
d="M8 1284v150h1006v-150h-58q0 39 -49 39h-270v-1323h-252v1323h-270q-49 0 -49 -39h-58z" />
    <glyph glyph-name="U" unicode="U" horiz-adv-x="1454" 
d="M147 1389v45h297v-1008q0 -92 25 -156.5t67 -104.5t98 -58.5t122 -18.5q92 0 190 21.5t191 76.5v1151q0 27 -14.5 39.5t-30.5 12.5v45h170v-1321q-41 -29 -98.5 -52.5t-124 -41t-140.5 -27.5t-145 -10q-113 0 -215.5 18t-179 65.5t-121.5 127t-45 202.5v942
q0 27 -13.5 39.5t-32.5 12.5z" />
    <glyph glyph-name="V" unicode="V" horiz-adv-x="1191" 
d="M18 1389v45h289l363 -1153l377 1153h127l-459 -1434h-219l-435 1358q-10 31 -43 31z" />
    <glyph glyph-name="W" unicode="W" horiz-adv-x="1818" 
d="M18 1389v45h285l279 -1143l307 1143h196l279 -1143l307 1143h129l-383 -1434h-248l-254 1063l-284 -1063h-244l-326 1360q-4 14 -16 21.5t-27 7.5z" />
    <glyph glyph-name="X" unicode="X" horiz-adv-x="1171" 
d="M4 0l447 733l-340 625q-10 18 -24.5 24.5t-29.5 6.5v45h303l297 -537l330 537h148l-406 -666l424 -768h-301l-330 610l-370 -610h-148z" />
    <glyph glyph-name="Y" unicode="Y" horiz-adv-x="1097" 
d="M18 1389v45h304l301 -617l348 617h147l-811 -1434h-147l311 553l-401 807q-10 20 -24.5 24.5t-27.5 4.5z" />
    <glyph glyph-name="Z" unicode="Z" horiz-adv-x="1267" 
d="M61 0l752 1323h-496q-29 0 -46 -7t-26 -17.5t-12.5 -22.5t-3.5 -23h-57v181h1004l-754 -1323h784v-111h-1145z" />
    <glyph glyph-name="bracketleft" unicode="[" horiz-adv-x="612" 
d="M172 -260v1769h317v-77h-194v-1614h194v-78h-317z" />
    <glyph glyph-name="backslash" unicode="\" horiz-adv-x="770" 
d="M41 1509h125l563 -1585h-127z" />
    <glyph glyph-name="bracketright" unicode="]" horiz-adv-x="612" 
d="M123 -182h194v1614h-194v77h317v-1769h-317v78z" />
    <glyph glyph-name="asciicircum" unicode="^" horiz-adv-x="854" 
d="M72 446l297 555h137l276 -555h-139l-209 418l-221 -418h-141z" />
    <glyph glyph-name="underscore" unicode="_" horiz-adv-x="1044" 
d="M61 -96h922v-117h-922v117z" />
    <glyph glyph-name="grave" unicode="`" horiz-adv-x="724" 
d="M199 1470h192l135 -276h-98z" />
    <glyph glyph-name="a" unicode="a" horiz-adv-x="1132" 
d="M90 279q0 92 44 153.5t114.5 99t158 53t171.5 15.5h186v191q0 206 -201 206h-2q-141 0 -210.5 -14t-86.5 -68h-67l-2 140q109 14 211 25.5t186 11.5q199 0 289 -83t90 -231v-729q-100 -39 -209 -56.5t-250 -17.5q-90 0 -167 12.5t-133 46.5t-89 92t-33 153zM305 272
q0 -68 17.5 -109.5t48 -65t71.5 -33t88 -9.5q66 0 126.5 15.5t107.5 31.5v416q-109 0 -194 -9t-144 -34.5t-90 -74t-31 -128.5z" />
    <glyph glyph-name="b" unicode="b" horiz-adv-x="1206" 
d="M127 1464v45h250v-458q61 16 123.5 28.5t142.5 12.5q104 0 188 -24t143.5 -82t91.5 -159.5t32 -257.5q0 -182 -42 -296.5t-114 -180t-168 -90.5t-203 -25q-119 0 -216 17.5t-183 52.5v1366q0 27 -13.5 39t-31.5 12zM377 117q53 -37 102 -47.5t115 -10.5q156 0 218 112
t62 345q0 117 -12 208t-44 152.5t-85 93t-133 31.5q-61 0 -109.5 -12t-113.5 -37v-835z" />
    <glyph glyph-name="c" unicode="c" horiz-adv-x="1011" 
d="M111 526q0 283 123.5 424.5t390.5 141.5q47 0 85 -2.5t72.5 -7.5t70.5 -12t79 -15v-125h-68q-8 35 -71.5 53t-157.5 18q-76 0 -131 -25.5t-92 -80.5t-54.5 -144t-17.5 -216q0 -250 66.5 -362t230.5 -112q84 0 148.5 14.5t138.5 43.5v-92q-84 -29 -155 -40.5t-161 -11.5
q-111 0 -202 20.5t-156.5 80t-102 167t-36.5 283.5z" />
    <glyph glyph-name="d" unicode="d" horiz-adv-x="1206" 
d="M111 537q0 156 31.5 262t91 170.5t143.5 93.5t188 29q80 0 142.5 -12.5t123.5 -28.5v364q0 27 -13 39t-32 12v43h248v-1462q-86 -35 -182 -52.5t-215 -17.5q-109 0 -204 19.5t-166.5 79t-113.5 169t-42 292.5zM334 516q0 -233 62.5 -345t217.5 -112q66 0 115 10.5
t102 47.5v835q-66 25 -113.5 37t-109.5 12q-80 0 -133 -31.5t-85 -93t-44 -152.5t-12 -208z" />
    <glyph glyph-name="e" unicode="e" horiz-adv-x="1114" 
d="M100 530q0 158 42 265.5t111 173t157 94.5t180 29q113 0 194.5 -42t134 -111t78 -155t25.5 -174v-92h-682q0 -231 59.5 -343t216.5 -112q90 0 164 11.5t158 46.5v-92q-72 -29 -149.5 -41.5t-178.5 -12.5q-127 0 -222 29t-158.5 93.5t-96.5 171t-33 261.5zM342 600h477
q0 199 -48 300t-183 101q-137 0 -191.5 -105t-54.5 -296z" />
    <glyph glyph-name="f" unicode="f" horiz-adv-x="667" 
d="M127 0v45q16 0 30.5 12.5t14.5 38.5v1190q0 61 26.5 108.5t69.5 78t98.5 47t112.5 16.5q55 0 91 -3t83 -9v-97q-33 8 -55.5 12.5t-54.5 4.5q-72 0 -119 -42t-47 -102v-235h313v-90h-313v-881q0 -25 13 -37t30 -12v-45h-293z" />
    <glyph glyph-name="g" unicode="g" horiz-adv-x="1208" 
d="M111 532q0 180 42 291t113.5 170.5t166.5 79t204 19.5q119 0 216 -19.5t183 -50.5v-1137q0 -82 -27.5 -137t-70.5 -91t-95 -55.5t-101.5 -28.5t-89.5 -10t-58 -1h-60.5t-44.5 2q-23 2 -36 4v92q10 -2 24 -4q12 -2 27.5 -2h36.5q43 0 93 7t95 27.5t75 58.5t30 101v175
q-55 -20 -122 -33t-147 -13q-104 0 -188 29t-143.5 93.5t-91 171t-31.5 261.5zM334 553q0 -117 12 -208t44 -152.5t85 -93t133 -31.5q61 0 109.5 11t113.5 38v835q-53 37 -102 47.5t-115 10.5q-156 0 -218 -112t-62 -345z" />
    <glyph glyph-name="h" unicode="h" horiz-adv-x="1212" 
d="M127 0v45q16 0 30.5 12.5t14.5 38.5v1317q0 27 -13.5 39t-31.5 12v45h250v-477q72 31 151.5 45.5t145.5 14.5q106 0 177 -19.5t113 -60.5t59 -107.5t17 -161.5v-647q0 -51 41 -51v-45h-245v721q0 82 -15.5 135t-46.5 84t-76 42t-102 11q-61 0 -119.5 -20.5t-99.5 -50.5
v-826q0 -27 12 -39t29 -12v-45h-291z" />
    <glyph glyph-name="i" unicode="i" horiz-adv-x="548" 
d="M127 0v45q16 0 30.5 12.5t14.5 38.5v873q0 27 -13.5 39t-31.5 12v45h250v-969q0 -27 14.5 -39t30.5 -12v-45h-295zM141 1395q0 61 36 97t97 36t97.5 -36t36.5 -97t-36 -97t-98 -36q-61 0 -97 36t-36 97z" />
    <glyph glyph-name="j" unicode="j" horiz-adv-x="546" 
d="M-86 -346q41 2 87 11t84 30.5t62.5 58.5t24.5 94v1123q0 27 -13.5 39t-31.5 12v43h248v-1180q0 -82 -28 -137t-71 -91t-95 -55.5t-101 -28.5t-89 -10t-59 -1h-18v92zM141 1395q0 61 36 97t97 36t97.5 -36t36.5 -97t-36 -97t-98 -36q-61 0 -97 35.5t-36 97.5z" />
    <glyph glyph-name="k" unicode="k" horiz-adv-x="1064" 
d="M127 0v45q16 0 30.5 12.5t14.5 38.5v1325q-6 43 -45 43v45h250v-1413q0 -27 13 -39t32 -12v-45h-295zM457 500v114l352 367q8 10 8 18q0 12 -9 16.5t-22 4.5v45h258l-423 -438l423 -627h-253z" />
    <glyph glyph-name="l" unicode="l" horiz-adv-x="552" 
d="M127 1466v43h250v-1288q0 -59 16.5 -93t59.5 -34v-108q-135 0 -208 64.5t-73 174.5v1192q0 25 -14.5 37t-30.5 12z" />
    <glyph glyph-name="m" unicode="m" horiz-adv-x="1830" 
d="M127 0v45q16 0 30.5 12.5t14.5 38.5v926q41 12 98.5 24.5t122 22.5t132 16.5t128.5 6.5q106 0 176 -16.5t111 -55.5q86 39 169 55.5t175 16.5q109 0 180.5 -17.5t114.5 -57.5t61.5 -106.5t18.5 -162.5v-652q0 -51 41 -51v-45h-246v733q0 82 -16.5 134.5t-47 82
t-75.5 40.5t-103 11q-53 0 -112.5 -22.5t-100.5 -58.5q18 -72 19 -172v-652q0 -51 41 -51v-45h-246v733q0 82 -15.5 134.5t-46 82t-74.5 40.5t-102 11q-55 0 -110 -20t-88 -51v-834q0 -27 12 -39t29 -12v-45h-291z" />
    <glyph glyph-name="n" unicode="n" horiz-adv-x="1212" 
d="M127 0v45q16 0 30.5 12.5t14.5 38.5v926q41 12 101.5 24.5t129 22.5t139 16.5t132.5 6.5q111 0 181.5 -17.5t111.5 -57.5t57 -106.5t16 -162.5v-652q0 -51 41 -51v-45h-245v733q0 82 -15.5 134.5t-46.5 82t-76 40.5t-102 11q-66 0 -122 -19t-97 -52v-834q0 -27 12 -39
t29 -12v-45h-291z" />
    <glyph glyph-name="o" unicode="o" horiz-adv-x="1181" 
d="M102 532q0 158 35 264.5t99.5 172t154.5 94.5t201 29t200 -29t153.5 -94.5t99 -172t34.5 -264.5t-34.5 -264t-99 -171.5t-154 -94.5t-199.5 -29q-111 0 -201 29t-154.5 94.5t-99.5 172t-35 263.5zM322 532q0 -92 10 -177t39.5 -151.5t83 -105.5t137.5 -39t137 39
t83 105.5t40 151.5t10 177t-10 177.5t-40 152t-83 105.5t-137 39t-137.5 -39t-83 -105.5t-39.5 -151.5t-10 -178z" />
    <glyph glyph-name="p" unicode="p" horiz-adv-x="1208" 
d="M127 -387q18 0 31.5 12.5t13.5 38.5v1358q86 31 183.5 50.5t215.5 19.5q106 0 202.5 -19.5t168.5 -79t114 -170t42 -291.5q0 -156 -32 -262t-91.5 -170.5t-143 -93.5t-188.5 -29q-80 0 -142.5 12.5t-123.5 28.5v-450h-250v45zM377 117q66 -25 114 -37t109 -12
q80 0 133 31.5t85 93t44 152.5t12 208q0 233 -62 345t-218 112q-66 0 -115 -10.5t-102 -47.5v-835z" />
    <glyph glyph-name="q" unicode="q" horiz-adv-x="1208" 
d="M111 532q0 180 42 291t113.5 170.5t166.5 79t204 19.5q119 0 216 -19.5t183 -50.5v-1462h-250v45q18 0 31.5 12t13.5 39v362q-61 -16 -123.5 -28.5t-142.5 -12.5q-104 0 -188 29t-143.5 93.5t-91 171t-31.5 261.5zM334 553q0 -117 12 -208t44 -152.5t85 -93t133 -31.5
q61 0 109.5 12t113.5 37v835q-53 37 -102 47.5t-115 10.5q-156 0 -218 -112t-62 -345z" />
    <glyph glyph-name="r" unicode="r" horiz-adv-x="788" 
d="M127 0v45q16 0 30.5 12.5t14.5 38.5v926q59 16 135 29.5t156 22.5t158.5 14.5t146.5 5.5h10v-150h-67q0 18 -12.5 28.5t-31 15.5t-40 6t-39.5 1q-49 0 -111.5 -16t-99.5 -41v-844q0 -25 12 -37t29 -12v-45h-291z" />
    <glyph glyph-name="s" unicode="s" horiz-adv-x="1001" 
d="M111 762q0 176 109.5 253t305.5 77q66 0 155 -11.5t167 -25.5v-152h-68q-6 31 -35.5 50.5t-67.5 30.5t-77 15.5t-65 4.5q-49 0 -94.5 -10.5t-81 -32t-57 -55.5t-21.5 -81q0 -41 15 -67.5t39.5 -44t57.5 -28.5t68 -21l229 -70q45 -14 85 -39t71 -60.5t48 -82.5t17 -105
q0 -98 -34.5 -162.5t-93 -101.5t-135.5 -52.5t-159 -15.5q-55 0 -101 2.5t-89 8.5t-87 16t-95 27v170h67q8 -20 28.5 -45t56.5 -45.5t89.5 -34t126.5 -13.5q45 0 89 12.5t80 37t57.5 59.5t21.5 80q0 53 -33.5 92t-87.5 55l-233 74q-119 37 -193.5 107.5t-74.5 183.5z" />
    <glyph glyph-name="t" unicode="t" horiz-adv-x="634" 
d="M29 975v90h155v309h205v-309h246v-90h-246v-752q0 -59 40 -101t99 -42q41 0 68 4t61 12v-96q-47 -6 -81.5 -9t-90.5 -3q-57 0 -111.5 16t-96 47t-67.5 75t-26 101v748h-155z" />
    <glyph glyph-name="u" unicode="u" horiz-adv-x="1212" 
d="M127 1020v45h250v-680q0 -166 48 -242.5t165 -76.5q66 0 132 14t114 43v846q0 27 -13.5 39t-31.5 12v45h249v-1022q-80 -20 -157 -35q-66 -12 -142.5 -22.5t-136.5 -10.5q-111 0 -191.5 17.5t-135 57.5t-80 106.5t-25.5 162.5v650q0 27 -14.5 39t-30.5 12z" />
    <glyph glyph-name="v" unicode="v" horiz-adv-x="954" 
d="M18 1020v45h256l269 -846l268 846h125l-338 -1065h-207l-313 981q-8 27 -25.5 33t-34.5 6z" />
    <glyph glyph-name="w" unicode="w" horiz-adv-x="1581" 
d="M18 1020v45h258l259 -846l251 846h140l252 -846l258 846h127l-328 -1065h-215l-209 729l-215 -729h-215l-303 981q-8 27 -25.5 33t-34.5 6z" />
    <glyph glyph-name="x" unicode="x" horiz-adv-x="942" 
d="M39 0l319 543l-245 438q-16 29 -35 34t-37 5v45h264l211 -379l223 379h140l-297 -496l321 -569h-239l-238 422l-244 -422h-143z" />
    <glyph glyph-name="y" unicode="y" horiz-adv-x="958" 
d="M18 1020v45h256l269 -846l268 846h129l-375 -1180q-33 -104 -74.5 -167.5t-89 -98.5t-97.5 -46t-99 -11q-33 0 -63.5 2t-69.5 6v100q43 -6 92 -6q92 0 161.5 44t100.5 145l47 147h-82l-313 981q-8 27 -25.5 33t-34.5 6z" />
    <glyph glyph-name="z" unicode="z" horiz-adv-x="921" 
d="M31 0l542 969h-313q-45 0 -58.5 -21.5t-13.5 -38.5h-69v156h749l-540 -963h563v-102h-860z" />
    <glyph glyph-name="braceleft" unicode="{" horiz-adv-x="645" 
d="M70 598v53q43 8 72.5 36t49 67t28.5 87t9 97v367q0 100 51.5 152t118.5 52h156v-82h-74q-70 0 -99.5 -21.5t-29.5 -86.5v-434q0 -63 -16.5 -109.5t-40 -77t-50 -48t-44.5 -23.5q18 -6 44.5 -35t50 -73t40 -101.5t16.5 -120.5v-367q0 -66 30 -87t99 -21h74v-82h-156
q-68 0 -119 52t-51 153v299q0 49 -9 107.5t-28.5 110.5t-49 90t-72.5 46z" />
    <glyph glyph-name="bar" unicode="|" horiz-adv-x="731" 
d="M307 -430v1939h117v-1939h-117z" />
    <glyph glyph-name="braceright" unicode="}" horiz-adv-x="645" 
d="M90 -178h74q70 0 99.5 21.5t29.5 86.5v367q0 63 16.5 120.5t40 101.5t50 73t44.5 35q-18 6 -44.5 23.5t-50 48t-40 76.5t-16.5 110v434q0 66 -30 87t-99 21h-74v82h156q68 0 119 -52t51 -152v-367q0 -49 9 -97t28.5 -87t49 -67t72.5 -36v-53q-43 -8 -72.5 -46t-49 -90
t-28.5 -110.5t-9 -107.5v-299q0 -100 -51.5 -152.5t-118.5 -52.5h-156v82z" />
    <glyph glyph-name="asciitilde" unicode="~" horiz-adv-x="1136" 
d="M72 565q0 57 18.5 112.5t54 99.5t88 70.5t117.5 26.5q80 0 148.5 -44t119.5 -109q35 -47 76 -73.5t88 -26.5q70 0 114 56t46 134h123q0 -66 -21.5 -122t-59.5 -98t-89 -65.5t-113 -23.5q-78 0 -143.5 41t-122.5 112q-35 43 -76 72t-90 29q-37 0 -65.5 -16.5t-49 -43
t-30.5 -61.5t-10 -70h-123z" />
    <glyph glyph-name="uni00A0" unicode="&#xa0;" horiz-adv-x="491" 
 />
    <glyph glyph-name="exclamdown" unicode="&#xa1;" horiz-adv-x="544" 
d="M152 0l43 1102h155l43 -1102h-241zM158 1346q0 53 29.5 82.5t82.5 29.5t83 -29.5t30 -82.5t-29.5 -83t-83.5 -30q-53 0 -82.5 29.5t-29.5 83.5z" />
    <glyph glyph-name="cent" unicode="&#xa2;" horiz-adv-x="1011" 
d="M111 526q0 264 108.5 404.5t337.5 159.5v100h117v-98q72 -4 128 -12.5t130 -24.5v-125h-68q-8 29 -60 47t-130 22v-938q70 4 127 18.5t123 39.5v-92q-70 -23 -127.5 -34t-122.5 -16v-100h-117v100q-100 4 -182 28t-140.5 84.5t-91 165.5t-32.5 271zM340 535
q0 -219 48 -331t169 -136v925q-113 -25 -165 -132t-52 -326z" />
    <glyph glyph-name="sterling" unicode="&#xa3;" horiz-adv-x="1054" 
d="M100 725v102h179q-23 49 -45.5 111.5t-22.5 128.5q0 82 36 142.5t90 99.5t120.5 57t128.5 18q88 0 168 -13t166 -38v-106h-58q-2 12 -13 25.5t-36 24.5t-64.5 18.5t-99.5 7.5q-43 0 -85 -9.5t-75.5 -29t-54 -51t-20.5 -76.5q0 -53 10 -93t26.5 -76t35 -69t36.5 -72h344
l-47 -102h-260q8 -33 12 -70t4 -82q0 -111 -30.5 -226.5t-114.5 -244.5h498v-102h-760v96q29 35 57.5 92.5t53 128t40 147.5t15.5 148q0 57 -17 113h-217z" />
    <glyph glyph-name="yen" unicode="&#xa5;" horiz-adv-x="1136" 
d="M45 1321v41h295l278 -588l332 588h144l-330 -582h276l-59 -102h-274l-70 -123h276l-57 -102h-278l-256 -453h-142l248 453h-309v102h348l-61 123h-287v102h233l-258 512q-10 20 -23.5 24.5t-25.5 4.5z" />
    <glyph glyph-name="brokenbar" unicode="&#xa6;" horiz-adv-x="731" 
d="M307 -430v907h117v-907h-117zM307 602v907h117v-907h-117z" />
    <glyph glyph-name="section" unicode="&#xa7;" horiz-adv-x="958" 
d="M111 647q0 78 22.5 146.5t46.5 99.5l82 -41q-8 -25 -8 -55q0 -59 32.5 -113.5t119.5 -95.5l229 -111q31 35 50.5 77t19.5 85q0 59 -32 113.5t-118 95.5l-262 127q-29 14 -52.5 31.5t-40 43t-24.5 61.5t-8 87q0 262 336 262q41 0 90 -4t94 -10v-123h-55q0 29 -30 49.5
t-107 20.5q-96 0 -140.5 -34t-44.5 -73q0 -78 56 -104l350 -168q80 -37 105.5 -102.5t25.5 -135.5q0 -86 -36 -176t-105 -162q41 -29 61 -72.5t20 -127.5q0 -133 -80.5 -198t-250.5 -65q-41 0 -90.5 4.5t-96.5 10.5v123h58q0 -29 28.5 -49.5t106.5 -20.5q100 0 143 30.5
t43 80.5q0 72 -57 98l-350 170q-74 37 -102.5 93t-28.5 132z" />
    <glyph glyph-name="dieresis" unicode="&#xa8;" horiz-adv-x="952" 
d="M205 1358q0 49 28.5 77.5t77.5 28.5q51 0 79 -28.5t28 -77.5t-28 -78t-79 -29q-49 0 -77.5 29t-28.5 78zM535 1358q0 49 27.5 77.5t78.5 28.5q49 0 78 -28.5t29 -77.5t-29 -78t-78 -29q-51 0 -78.5 29t-27.5 78z" />
    <glyph glyph-name="copyright" unicode="&#xa9;" horiz-adv-x="1015" 
d="M80 1081q0 88 33.5 166t91 136.5t135.5 92t168 33.5q88 0 166 -33.5t136 -92t92 -136.5t34 -166q0 -90 -34 -167.5t-92 -135t-136 -91.5t-166 -34q-90 0 -168 34t-135.5 91.5t-91 135t-33.5 167.5zM156 1081q0 -74 27.5 -137t75.5 -111.5t111.5 -76t137.5 -27.5
t137.5 27.5t111.5 76t75.5 112t27.5 136.5q0 74 -27.5 137.5t-75.5 111.5t-111.5 76t-137.5 28t-137.5 -28t-111.5 -76t-75.5 -111.5t-27.5 -137.5zM305 1077q0 53 10.5 99.5t35 81t66.5 55t105 20.5q70 0 140 -20v-60h-35q-8 14 -30 21.5t-44 7.5q-61 0 -90 -26.5
t-41 -90.5q-2 -16 -3 -38.5t-1 -49.5q0 -86 22 -131q14 -35 43 -51t64 -16t52 8t28 28h30v-79q-41 -8 -69.5 -12.5t-71.5 -4.5q-109 0 -160 56.5t-51 201.5z" />
    <glyph glyph-name="ordfeminine" unicode="&#xaa;" horiz-adv-x="800" 
d="M70 874q0 68 32.5 113t83 72.5t112.5 39t124 11.5h133v125q0 147 -143 147q-100 0 -151.5 -10t-63.5 -49h-47l-3 109q78 10 152 18t133 8q143 0 211 -59.5t68 -165.5v-526q-74 -29 -152 -46.5t-178 -17.5q-66 0 -122 11.5t-98 38t-66.5 70.5t-24.5 111zM231 866
q0 -47 13.5 -76.5t35 -46t50 -22.5t59.5 -6q47 0 89 11t77 24v292q-76 0 -136.5 -6t-101.5 -25.5t-63.5 -54t-22.5 -90.5z" />
    <glyph glyph-name="guillemotleft" unicode="&#xab;" horiz-adv-x="919" 
d="M111 532l313 451l102 -72l-268 -379l266 -378l-100 -72zM414 532l313 451l102 -72l-268 -379l266 -378l-100 -72z" />
    <glyph glyph-name="logicalnot" unicode="&#xac;" horiz-adv-x="1126" 
d="M102 557v117h922v-520h-117v403h-805z" />
    <glyph glyph-name="uni00AD" unicode="&#xad;" horiz-adv-x="819" 
d="M111 555v164h598v-164h-598z" />
    <glyph glyph-name="registered" unicode="&#xae;" horiz-adv-x="1015" 
d="M80 1081q0 88 33.5 166t91 136.5t135.5 92t168 33.5q88 0 166 -33.5t136 -92t92 -136.5t34 -166q0 -90 -34 -167.5t-92 -135t-136 -91.5t-166 -34q-90 0 -168 34t-135.5 91.5t-91 135t-33.5 167.5zM156 1081q0 -74 27.5 -137t75.5 -111.5t111.5 -76t137.5 -27.5
t137.5 27.5t111.5 76t75.5 112t27.5 136.5q0 74 -27.5 137.5t-75.5 111.5t-111.5 76t-137.5 28t-137.5 -28t-111.5 -76t-75.5 -111.5t-27.5 -137.5zM338 1290v35h162q35 0 66.5 -4t56 -17.5t39 -38t14.5 -65.5q0 -39 -20.5 -73.5t-61.5 -49.5q31 -59 60.5 -122.5
t60.5 -120.5h-115l-115 243l25 31q37 4 53.5 28.5t16.5 53.5q0 45 -19.5 63.5t-60.5 18.5h-49v-438h-97v444q0 12 -16 12z" />
    <glyph glyph-name="macron" unicode="&#xaf;" horiz-adv-x="1021" 
d="M205 1278v133h612v-133h-612z" />
    <glyph glyph-name="degree" unicode="&#xb0;" horiz-adv-x="888" 
d="M80 1094q0 74 28.5 140t78 116.5t116 79t141.5 28.5q74 0 140.5 -28.5t117 -79t79 -117t28.5 -139.5q0 -76 -28.5 -142.5t-79 -116t-117 -78t-140.5 -28.5q-76 0 -142 28.5t-115.5 78t-78 116t-28.5 142.5zM203 1094q0 -49 19.5 -93.5t52 -77t76.5 -52t93 -19.5
t93.5 19.5t77 52t52 76.5t19.5 94q0 49 -19.5 93t-52 76.5t-76.5 52t-94 19.5q-49 0 -93 -19.5t-76.5 -52t-52 -76.5t-19.5 -93z" />
    <glyph glyph-name="plusminus" unicode="&#xb1;" 
d="M111 78v117h921v-117h-921zM111 676v117h401v360h117v-360h403v-117h-403v-363h-117v363h-401z" />
    <glyph glyph-name="uni00B2" unicode="&#xb2;" horiz-adv-x="669" 
d="M49 655v101q43 27 107.5 71.5t126 106t105.5 138.5t44 165q0 72 -30.5 116t-127.5 44q-47 0 -78.5 -3t-66.5 -12q-10 0 -10 -18h-39v66q57 12 114.5 20t96.5 8q158 0 230.5 -51t72.5 -176q0 -74 -40 -142.5t-100.5 -129t-128 -108.5t-122.5 -81h344q20 0 20 18h33v-133
h-551z" />
    <glyph glyph-name="uni00B3" unicode="&#xb3;" horiz-adv-x="686" 
d="M61 670v55q43 -10 80 -15t70 -5q125 0 176 47t51 139q0 31 -10 61.5t-34.5 53t-64.5 37t-100 14.5v67q41 0 73 15.5t54.5 40t34.5 54.5t12 58q0 20 -5 40t-20.5 34t-44 22.5t-73.5 8.5q-35 0 -66.5 -4t-60.5 -11q-14 -2 -14 -18h-41v66q43 10 107.5 19t123.5 9
q147 0 200.5 -42t53.5 -128q0 -76 -48 -127t-159 -67q121 -6 186.5 -53.5t65.5 -159.5q0 -74 -29.5 -120t-77.5 -72.5t-107.5 -37t-119.5 -10.5q-61 0 -111 7t-102 22z" />
    <glyph glyph-name="acute" unicode="&#xb4;" horiz-adv-x="724" 
d="M199 1194l135 276h192l-229 -276h-98z" />
    <glyph glyph-name="uni00B5" unicode="&#xb5;" horiz-adv-x="1212" 
d="M127 -367q18 0 31.5 12.5t13.5 39.5v1284q0 27 -14.5 39t-30.5 12v45h250v-680q0 -166 48 -242.5t165 -76.5q66 0 132 14t114 43v846q0 27 -13.5 39t-31.5 12v45h249v-1022q-80 -20 -157 -35q-66 -12 -142.5 -22.5t-136.5 -10.5q-133 0 -227 54v-441h-250v45z" />
    <glyph glyph-name="paragraph" unicode="&#xb6;" horiz-adv-x="1241" 
d="M102 1038q0 188 88.5 292t280.5 104h219v-1434h-219v641q-102 6 -173 41t-114 88t-62.5 123t-19.5 145zM829 0v1434h220v-1350q0 -23 14 -31t31 -8v-45h-265z" />
    <glyph glyph-name="periodcentered" unicode="&#xb7;" horiz-adv-x="376" 
d="M61 649q0 59 34 93t93 34t93 -33.5t34 -93.5q0 -59 -33.5 -93t-93.5 -34q-59 0 -93 34t-34 93z" />
    <glyph glyph-name="cedilla" unicode="&#xb8;" horiz-adv-x="673" 
d="M205 -139l20 67h115q66 -25 95.5 -73t33.5 -103q0 -41 -15.5 -74.5t-40 -57t-52 -37t-52.5 -13.5l-51 86q41 2 70.5 27.5t29.5 70.5q0 59 -47 83t-106 24z" />
    <glyph glyph-name="uni00B9" unicode="&#xb9;" horiz-adv-x="471" 
d="M8 1352v59l344 47v-803h-180v33q27 0 27 25v661z" />
    <glyph glyph-name="ordmasculine" unicode="&#xba;" horiz-adv-x="864" 
d="M82 1053q0 115 25.5 192.5t71.5 125.5t112.5 68.5t146.5 20.5t146.5 -20.5t112.5 -68.5t72 -125.5t26 -192.5t-26 -194t-72 -126t-112.5 -67.5t-146.5 -20.5t-146.5 20.5t-112.5 67.5t-71.5 126t-25.5 194zM248 1053q0 -66 7 -126.5t27.5 -107.5t58.5 -74.5t97 -27.5
t97 27.5t58.5 74.5t28 107.5t7.5 126.5q0 63 -7.5 123.5t-28 107.5t-58.5 74.5t-97 27.5t-97 -27.5t-58.5 -74.5t-27.5 -107.5t-7 -123.5z" />
    <glyph glyph-name="guillemotright" unicode="&#xbb;" horiz-adv-x="899" 
d="M90 911l103 72l313 -451l-313 -450l-101 72l266 378zM393 911l103 72l313 -451l-313 -450l-101 72l267 378z" />
    <glyph glyph-name="questiondown" unicode="&#xbf;" horiz-adv-x="860" 
d="M70 299q0 109 46 173.5t109 107.5l203 139q53 37 63.5 82t10.5 86v190h157v-207q0 -59 -9 -107t-48 -85l-184 -176q-47 -45 -78 -102.5t-31 -120.5q0 -131 35 -179.5t119 -48.5q76 0 137.5 15.5t114.5 37.5q12 4 15 13.5t3 19.5h58v-76q-86 -43 -173.5 -64.5
t-171.5 -21.5q-78 0 -146.5 14.5t-119.5 50.5t-80.5 98.5t-29.5 160.5zM473 1346q0 53 30 82.5t83 29.5t82.5 -29.5t29.5 -82.5t-29.5 -83t-82.5 -30t-83 29.5t-30 83.5z" />
    <glyph glyph-name="Agrave" unicode="&#xc0;" horiz-adv-x="1333" 
d="M0 0l139 356h129l-102 -258q-6 -12 -6 -24q0 -29 30 -29l-8 -45h-182zM186 475l377 959h195l516 -1342q10 -23 22.5 -35t36.5 -12v-45h-311l-430 1165l-275 -690h-131zM373 1798h213l135 -276h-119z" />
    <glyph glyph-name="Aacute" unicode="&#xc1;" horiz-adv-x="1333" 
d="M0 0l139 356h129l-102 -258q-6 -12 -6 -24q0 -29 30 -29l-8 -45h-182zM186 475l377 959h195l516 -1342q10 -23 22.5 -35t36.5 -12v-45h-311l-430 1165l-275 -690h-131zM602 1522l135 276h213l-229 -276h-119z" />
    <glyph glyph-name="Acircumflex" unicode="&#xc2;" horiz-adv-x="1333" 
d="M0 0l139 356h129l-102 -258q-6 -12 -6 -24q0 -29 30 -29l-8 -45h-182zM186 475l377 959h195l516 -1342q10 -23 22.5 -35t36.5 -12v-45h-311l-430 1165l-275 -690h-131zM381 1522l176 276h180l176 -276h-116l-150 168l-149 -168h-117z" />
    <glyph glyph-name="Atilde" unicode="&#xc3;" horiz-adv-x="1333" 
d="M0 0l139 356h129l-102 -258q-6 -12 -6 -24q0 -29 30 -29l-8 -45h-182zM186 475l377 959h195l516 -1342q10 -23 22.5 -35t36.5 -12v-45h-311l-430 1165l-275 -690h-131zM338 1567q8 53 31 94q18 35 52 65.5t89 30.5q47 0 85 -15.5t73 -31.5q31 -14 67.5 -26.5t65.5 -12.5
t47 11.5t29 25.5q12 16 20 39l74 -27q-8 -55 -31 -96q-18 -35 -53 -64.5t-88 -29.5q-55 0 -99.5 17.5t-78.5 31.5q-25 10 -62 23.5t-59 13.5q-29 0 -45.5 -12.5t-26.5 -26.5q-10 -18 -16 -39z" />
    <glyph glyph-name="Adieresis" unicode="&#xc4;" horiz-adv-x="1333" 
d="M0 0l139 356h129l-102 -258q-6 -12 -6 -24q0 -29 30 -29l-8 -45h-182zM186 475l377 959h195l516 -1342q10 -23 22.5 -35t36.5 -12v-45h-311l-430 1165l-275 -690h-131zM358 1675q0 53 32 84t85 31t84 -30.5t31 -84.5q0 -53 -31 -83.5t-84 -30.5t-85 30.5t-32 83.5z
M715 1675q0 53 30.5 84t83.5 31t85 -30.5t32 -84.5q0 -53 -31.5 -83.5t-85.5 -30.5q-53 0 -83.5 30.5t-30.5 83.5z" />
    <glyph glyph-name="Aring" unicode="&#xc5;" horiz-adv-x="1333" 
d="M0 0l139 356h129l-102 -258q-6 -12 -6 -24q0 -29 30 -29l-8 -45h-182zM186 475l377 959h195l516 -1342q10 -23 22.5 -35t36.5 -12v-45h-311l-430 1165l-275 -690h-131zM461 1675q0 39 15.5 74t41 61.5t61 42t76.5 15.5q39 0 74 -15.5t61.5 -42t42 -61.5t15.5 -74
q0 -41 -15.5 -76.5t-42 -61.5t-61.5 -41t-74 -15q-82 0 -138 56t-56 138zM555 1675q0 -41 29.5 -70.5t70.5 -29.5t71 29.5t30 70.5t-30 71t-71 30t-70.5 -30t-29.5 -71z" />
    <glyph glyph-name="AE" unicode="&#xc6;" horiz-adv-x="1732" 
d="M0 0l186 356h148l-135 -258q-8 -14 -9 -28q0 -25 29 -25v-45h-219zM248 475l502 959h872v-111h-512v-457h330v-102h-330v-653h559v-111h-811v1356l-463 -881h-147z" />
    <glyph glyph-name="Ccedilla" unicode="&#xc7;" horiz-adv-x="1224" 
d="M111 717q0 154 29.5 289t101 235t191.5 158.5t302 58.5q106 0 197.5 -13t193.5 -40v-121h-57q-27 45 -94.5 66.5t-147.5 21.5q-98 0 -169.5 -20.5t-123 -64.5t-83 -116.5t-48.5 -177.5q-10 -57 -12 -124.5t-2 -151.5q0 -127 14.5 -228.5t49.5 -179.5q47 -113 144 -169
t214 -56t172 25.5t88 78.5h41v-176q-51 -10 -94 -16t-87 -11t-94.5 -7.5t-115.5 -2.5q-156 0 -270.5 37t-190.5 124t-112.5 229.5t-36.5 351.5zM573 -139l21 67h115q66 -25 95.5 -73t33.5 -103q0 -41 -15.5 -74.5t-40 -57t-52.5 -37t-52 -13.5l-51 86q41 2 70.5 27.5
t29.5 70.5q0 59 -47 83t-107 24z" />
    <glyph glyph-name="Egrave" unicode="&#xc8;" horiz-adv-x="1067" 
d="M147 1389v45h809v-111h-512v-457h330v-102h-330v-653h560v-111h-811v1337q0 27 -13.5 39.5t-32.5 12.5zM373 1798h213l135 -276h-119z" />
    <glyph glyph-name="Eacute" unicode="&#xc9;" horiz-adv-x="1067" 
d="M147 1389v45h809v-111h-512v-457h330v-102h-330v-653h560v-111h-811v1337q0 27 -13.5 39.5t-32.5 12.5zM498 1522l135 276h213l-230 -276h-118z" />
    <glyph glyph-name="Ecircumflex" unicode="&#xca;" horiz-adv-x="1067" 
d="M147 1389v45h809v-111h-512v-457h330v-102h-330v-653h560v-111h-811v1337q0 27 -13.5 39.5t-32.5 12.5zM315 1522l177 276h180l176 -276h-117l-149 168l-150 -168h-117z" />
    <glyph glyph-name="Edieresis" unicode="&#xcb;" horiz-adv-x="1067" 
d="M147 1389v45h809v-111h-512v-457h330v-102h-330v-653h560v-111h-811v1337q0 27 -13.5 39.5t-32.5 12.5zM289 1675q0 53 31.5 84t85.5 31q53 0 83.5 -30.5t30.5 -84.5q0 -53 -30.5 -83.5t-83.5 -30.5t-85 30.5t-32 83.5zM645 1675q0 53 31 84t84 31t85 -30.5t32 -84.5
q0 -53 -32 -83.5t-85 -30.5t-84 30.5t-31 83.5z" />
    <glyph glyph-name="Igrave" unicode="&#xcc;" horiz-adv-x="636" 
d="M49 1798h213l135 -276h-118zM147 1389v45h297v-1434h-251v1337q0 27 -13.5 39.5t-32.5 12.5z" />
    <glyph glyph-name="Iacute" unicode="&#xcd;" horiz-adv-x="636" 
d="M147 1389v45h297v-1434h-251v1337q0 27 -13.5 39.5t-32.5 12.5zM236 1522l135 276h213l-230 -276h-118z" />
    <glyph glyph-name="Icircumflex" unicode="&#xce;" horiz-adv-x="636" 
d="M53 1522l176 276h181l176 -276h-117l-150 168l-149 -168h-117zM147 1389v45h297v-1434h-251v1337q0 27 -13.5 39.5t-32.5 12.5z" />
    <glyph glyph-name="Idieresis" unicode="&#xcf;" horiz-adv-x="636" 
d="M25 1675q0 53 31.5 84t84.5 31t84 -30.5t31 -84.5q0 -53 -30.5 -83.5t-84.5 -30.5q-53 0 -84.5 30.5t-31.5 83.5zM147 1389v45h297v-1434h-251v1337q0 27 -13.5 39.5t-32.5 12.5zM381 1675q0 53 30.5 84t84.5 31q53 0 84.5 -30.5t31.5 -84.5q0 -53 -31.5 -83.5
t-84.5 -30.5t-84 30.5t-31 83.5z" />
    <glyph glyph-name="Ntilde" unicode="&#xd1;" horiz-adv-x="1476" 
d="M147 1389v45h244l776 -1086v998q0 23 -14 33t-31 10v45h170v-1434h-202l-773 1104v-1016q0 -23 14.5 -33t30.5 -10v-45h-169v1337q0 27 -13.5 39.5t-32.5 12.5zM463 1567q8 53 31 94q18 35 52 65.5t89 30.5q47 0 85 -15.5t73 -31.5q31 -14 67.5 -26.5t65.5 -12.5t47 11.5
t28 25.5q12 16 21 39l74 -27q-8 -55 -31 -96q-18 -35 -53 -64.5t-88 -29.5q-55 0 -99.5 17.5t-79.5 31.5q-25 10 -61.5 23.5t-58.5 13.5q-29 0 -45.5 -12.5t-26.5 -26.5q-10 -18 -16 -39z" />
    <glyph glyph-name="Ograve" unicode="&#xd2;" horiz-adv-x="1433" 
d="M111 717q0 383 149.5 562t456.5 179t456.5 -179t149.5 -562q0 -385 -149.5 -563.5t-456.5 -178.5t-456.5 178.5t-149.5 563.5zM389 717q0 -195 22.5 -321t64.5 -198.5t102.5 -100t138.5 -27.5q76 0 137 27.5t103 100t64.5 198.5t22.5 321t-22.5 320.5t-64.5 198.5
t-103 100.5t-137 27.5q-78 0 -138.5 -27.5t-102.5 -100.5t-64.5 -199t-22.5 -320zM473 1798h213l135 -276h-119z" />
    <glyph glyph-name="Oacute" unicode="&#xd3;" horiz-adv-x="1433" 
d="M111 717q0 383 149.5 562t456.5 179t456.5 -179t149.5 -562q0 -385 -149.5 -563.5t-456.5 -178.5t-456.5 178.5t-149.5 563.5zM389 717q0 -195 22.5 -321t64.5 -198.5t102.5 -100t138.5 -27.5q76 0 137 27.5t103 100t64.5 198.5t22.5 321t-22.5 320.5t-64.5 198.5
t-103 100.5t-137 27.5q-78 0 -138.5 -27.5t-102.5 -100.5t-64.5 -199t-22.5 -320zM647 1522l135 276h213l-229 -276h-119z" />
    <glyph glyph-name="Ocircumflex" unicode="&#xd4;" horiz-adv-x="1433" 
d="M111 717q0 383 149.5 562t456.5 179t456.5 -179t149.5 -562q0 -385 -149.5 -563.5t-456.5 -178.5t-456.5 178.5t-149.5 563.5zM389 717q0 -195 22.5 -321t64.5 -198.5t102.5 -100t138.5 -27.5q76 0 137 27.5t103 100t64.5 198.5t22.5 321t-22.5 320.5t-64.5 198.5
t-103 100.5t-137 27.5q-78 0 -138.5 -27.5t-102.5 -100.5t-64.5 -199t-22.5 -320zM449 1522l176 276h180l176 -276h-117l-149 168l-150 -168h-116z" />
    <glyph glyph-name="Otilde" unicode="&#xd5;" horiz-adv-x="1433" 
d="M111 717q0 383 149.5 562t456.5 179t456.5 -179t149.5 -562q0 -385 -149.5 -563.5t-456.5 -178.5t-456.5 178.5t-149.5 563.5zM389 717q0 -195 22.5 -321t64.5 -198.5t102.5 -100t138.5 -27.5q76 0 137 27.5t103 100t64.5 198.5t22.5 321t-22.5 320.5t-64.5 198.5
t-103 100.5t-137 27.5q-78 0 -138.5 -27.5t-102.5 -100.5t-64.5 -199t-22.5 -320zM397 1567q8 53 31 94q18 35 52 65.5t89 30.5q47 0 85 -15.5t73 -31.5q31 -14 67.5 -26.5t65.5 -12.5t47.5 11.5t28.5 25.5q12 16 20 39l74 -27q-8 -55 -31 -96q-18 -35 -53 -64.5t-88 -29.5
q-55 0 -99 17.5t-79 31.5q-25 10 -61.5 23.5t-59.5 13.5q-29 0 -45 -12.5t-27 -26.5q-10 -18 -16 -39z" />
    <glyph glyph-name="Odieresis" unicode="&#xd6;" horiz-adv-x="1433" 
d="M111 717q0 383 149.5 562t456.5 179t456.5 -179t149.5 -562q0 -385 -149.5 -563.5t-456.5 -178.5t-456.5 178.5t-149.5 563.5zM389 717q0 -195 22.5 -321t64.5 -198.5t102.5 -100t138.5 -27.5q76 0 137 27.5t103 100t64.5 198.5t22.5 321t-22.5 320.5t-64.5 198.5
t-103 100.5t-137 27.5q-78 0 -138.5 -27.5t-102.5 -100.5t-64.5 -199t-22.5 -320zM422 1675q0 53 31.5 84t85.5 31q53 0 83.5 -30.5t30.5 -84.5q0 -53 -30.5 -83.5t-83.5 -30.5t-85 30.5t-32 83.5zM778 1675q0 53 31 84t84 31t85 -30.5t32 -84.5q0 -53 -32 -83.5t-85 -30.5
t-84 30.5t-31 83.5z" />
    <glyph glyph-name="multiply" unicode="&#xd7;" 
d="M152 279l335 335l-335 336l84 82l333 -336l340 340l82 -84l-338 -338l338 -338l-82 -83l-340 337l-333 -333z" />
    <glyph glyph-name="Oslash" unicode="&#xd8;" horiz-adv-x="1433" 
d="M111 0l131 176q-131 180 -131 541q0 383 149.5 562t456.5 179q248 0 393 -117l88 117h129l-143 -192q70 -92 104.5 -227.5t34.5 -321.5q0 -385 -149.5 -563.5t-456.5 -178.5q-260 0 -404 123l-71 -98h-131zM389 717q0 -195 21 -316l575 773q-41 109 -109.5 149.5
t-158.5 40.5q-78 0 -138.5 -27.5t-102.5 -100.5t-64.5 -199t-22.5 -320zM442 270q41 -115 111 -157.5t164 -42.5q76 0 137 27.5t103 100t64.5 198.5t22.5 321q0 102 -6 183t-18 147z" />
    <glyph glyph-name="Ugrave" unicode="&#xd9;" horiz-adv-x="1454" 
d="M147 1389v45h297v-1008q0 -92 25 -156.5t67 -104.5t98 -58.5t122 -18.5q92 0 190 21.5t191 76.5v1151q0 27 -14.5 39.5t-30.5 12.5v45h170v-1321q-41 -29 -98.5 -52.5t-124 -41t-140.5 -27.5t-145 -10q-113 0 -215.5 18t-179 65.5t-121.5 127t-45 202.5v942
q0 27 -13.5 39.5t-32.5 12.5zM510 1798h213l135 -276h-119z" />
    <glyph glyph-name="Uacute" unicode="&#xda;" horiz-adv-x="1454" 
d="M147 1389v45h297v-1008q0 -92 25 -156.5t67 -104.5t98 -58.5t122 -18.5q92 0 190 21.5t191 76.5v1151q0 27 -14.5 39.5t-30.5 12.5v45h170v-1321q-41 -29 -98.5 -52.5t-124 -41t-140.5 -27.5t-145 -10q-113 0 -215.5 18t-179 65.5t-121.5 127t-45 202.5v942
q0 27 -13.5 39.5t-32.5 12.5zM698 1522l136 276h213l-230 -276h-119z" />
    <glyph glyph-name="Ucircumflex" unicode="&#xdb;" horiz-adv-x="1454" 
d="M147 1389v45h297v-1008q0 -92 25 -156.5t67 -104.5t98 -58.5t122 -18.5q92 0 190 21.5t191 76.5v1151q0 27 -14.5 39.5t-30.5 12.5v45h170v-1321q-41 -29 -98.5 -52.5t-124 -41t-140.5 -27.5t-145 -10q-113 0 -215.5 18t-179 65.5t-121.5 127t-45 202.5v942
q0 27 -13.5 39.5t-32.5 12.5zM512 1522l176 276h180l176 -276h-116l-150 168l-149 -168h-117z" />
    <glyph glyph-name="Udieresis" unicode="&#xdc;" horiz-adv-x="1454" 
d="M147 1389v45h297v-1008q0 -92 25 -156.5t67 -104.5t98 -58.5t122 -18.5q92 0 190 21.5t191 76.5v1151q0 27 -14.5 39.5t-30.5 12.5v45h170v-1321q-41 -29 -98.5 -52.5t-124 -41t-140.5 -27.5t-145 -10q-113 0 -215.5 18t-179 65.5t-121.5 127t-45 202.5v942
q0 27 -13.5 39.5t-32.5 12.5zM479 1675q0 53 32 84t85 31t84 -30.5t31 -84.5q0 -53 -31 -83.5t-84 -30.5t-85 30.5t-32 83.5zM836 1675q0 53 30.5 84t83.5 31t85 -30.5t32 -84.5q0 -53 -31.5 -83.5t-85.5 -30.5q-53 0 -83.5 30.5t-30.5 83.5z" />
    <glyph glyph-name="Yacute" unicode="&#xdd;" horiz-adv-x="1136" 
d="M18 1389v45h304l301 -617l348 617h147l-811 -1434h-147l311 553l-401 807q-10 20 -24.5 24.5t-27.5 4.5zM551 1522l135 276h213l-229 -276h-119z" />
    <glyph glyph-name="germandbls" unicode="&#xdf;" horiz-adv-x="1218" 
d="M127 0v43q39 0 39 51v1092q0 80 31.5 132t89 83t138.5 44t179 13q88 0 164 -20.5t130 -58.5t85 -95t31 -131q0 -133 -42 -196.5t-138 -90.5q72 -18 121 -57t78.5 -92t41.5 -120t12 -138q0 -156 -34.5 -247t-89 -138t-122 -60.5t-130.5 -13.5h-131v63h52.5t51.5 3
q41 2 71.5 31.5t52 80.5t33 119t11.5 145q0 88 -8 161t-29.5 125t-58.5 82t-94 30v55q51 0 79.5 15.5t43 46t16.5 77.5t2 111q0 125 -55.5 181t-163.5 56q-59 0 -99.5 -10t-66 -36.5t-36.5 -75t-11 -121.5v-1045q0 -27 12 -39t29 -12v-43h-285z" />
    <glyph glyph-name="agrave" unicode="&#xe0;" horiz-adv-x="1132" 
d="M90 279q0 92 44 153.5t114.5 99t158 53t171.5 15.5h186v191q0 207 -203 206q-141 0 -210.5 -14t-86.5 -68h-67l-2 140q109 14 211 25.5t186 11.5q199 0 289 -83t90 -231v-729q-100 -39 -209 -56.5t-250 -17.5q-90 0 -167 12.5t-133 46.5t-89 92t-33 153zM305 272
q0 -68 17.5 -109.5t48 -65t71.5 -33t88 -9.5q66 0 126.5 15.5t107.5 31.5v416q-109 0 -194 -9t-144 -34.5t-90 -74t-31 -128.5zM338 1470h192l136 -276h-99z" />
    <glyph glyph-name="aacute" unicode="&#xe1;" horiz-adv-x="1132" 
d="M90 279q0 92 44 153.5t114.5 99t158 53t171.5 15.5h186v191q0 207 -203 206q-141 0 -210.5 -14t-86.5 -68h-67l-2 140q109 14 211 25.5t186 11.5q199 0 289 -83t90 -231v-729q-100 -39 -209 -56.5t-250 -17.5q-90 0 -167 12.5t-133 46.5t-89 92t-33 153zM305 272
q0 -68 17.5 -109.5t48 -65t71.5 -33t88 -9.5q66 0 126.5 15.5t107.5 31.5v416q-109 0 -194 -9t-144 -34.5t-90 -74t-31 -128.5zM498 1194l135 276h192l-229 -276h-98z" />
    <glyph glyph-name="acircumflex" unicode="&#xe2;" horiz-adv-x="1132" 
d="M90 279q0 92 44 153.5t114.5 99t158 53t171.5 15.5h186v191q0 207 -203 206q-141 0 -210.5 -14t-86.5 -68h-67l-2 140q109 14 211 25.5t186 11.5q199 0 289 -83t90 -231v-729q-100 -39 -209 -56.5t-250 -17.5q-90 0 -167 12.5t-133 46.5t-89 92t-33 153zM305 272
q0 -68 17.5 -109.5t48 -65t71.5 -33t88 -9.5q66 0 126.5 15.5t107.5 31.5v416q-109 0 -194 -9t-144 -34.5t-90 -74t-31 -128.5zM315 1194l166 276h160l166 -276h-96l-150 168l-149 -168h-97z" />
    <glyph glyph-name="atilde" unicode="&#xe3;" horiz-adv-x="1132" 
d="M90 279q0 92 44 153.5t114.5 99t158 53t171.5 15.5h186v191q0 207 -203 206q-141 0 -210.5 -14t-86.5 -68h-67l-2 140q109 14 211 25.5t186 11.5q199 0 289 -83t90 -231v-729q-100 -39 -209 -56.5t-250 -17.5q-90 0 -167 12.5t-133 46.5t-89 92t-33 153zM260 1266
q8 49 29 88q16 33 48 60.5t85 27.5q43 0 79 -13.5t68.5 -30t64.5 -29.5t66 -13q29 0 49.5 11t32.5 28q14 16 21 39l69 -27q-8 -51 -28 -88q-16 -35 -49 -61.5t-84 -26.5q-49 0 -88 13t-73 29.5t-63.5 30t-62.5 13.5q-31 0 -49.5 -12.5t-28.5 -26.5q-12 -18 -16 -39zM305 272
q0 -68 17.5 -109.5t48 -65t71.5 -33t88 -9.5q66 0 126.5 15.5t107.5 31.5v416q-109 0 -194 -9t-144 -34.5t-90 -74t-31 -128.5z" />
    <glyph glyph-name="adieresis" unicode="&#xe4;" horiz-adv-x="1132" 
d="M90 279q0 92 44 153.5t114.5 99t158 53t171.5 15.5h186v191q0 207 -203 206q-141 0 -210.5 -14t-86.5 -68h-67l-2 140q109 14 211 25.5t186 11.5q199 0 289 -83t90 -231v-729q-100 -39 -209 -56.5t-250 -17.5q-90 0 -167 12.5t-133 46.5t-89 92t-33 153zM295 1358
q0 49 28.5 77.5t77.5 28.5q51 0 79 -28.5t28 -77.5t-27.5 -78t-79.5 -29q-49 0 -77.5 29t-28.5 78zM305 272q0 -68 17.5 -109.5t48 -65t71.5 -33t88 -9.5q66 0 126.5 15.5t107.5 31.5v416q-109 0 -194 -9t-144 -34.5t-90 -74t-31 -128.5zM625 1358q0 49 27.5 77.5t78.5 28.5
q49 0 78 -28.5t29 -77.5t-29 -78t-78 -29q-51 0 -78.5 29t-27.5 78z" />
    <glyph glyph-name="aring" unicode="&#xe5;" horiz-adv-x="1132" 
d="M90 279q0 92 44 153.5t114.5 99t158 53t171.5 15.5h186v191q0 207 -203 206q-141 0 -210.5 -14t-86.5 -68h-67l-2 140q109 14 211 25.5t186 11.5q199 0 289 -83t90 -231v-729q-100 -39 -209 -56.5t-250 -17.5q-90 0 -167 12.5t-133 46.5t-89 92t-33 153zM305 272
q0 -68 17.5 -109.5t48 -65t71.5 -33t88 -9.5q66 0 126.5 15.5t107.5 31.5v416q-109 0 -194 -9t-144 -34.5t-90 -74t-31 -128.5zM385 1337q0 76 53.5 130.5t130.5 54.5q76 0 130.5 -54.5t54.5 -130.5q0 -78 -54.5 -131t-130.5 -53q-78 0 -131 53t-53 131zM469 1337
q0 -41 29.5 -70.5t70.5 -29.5t71 29.5t30 70.5t-30 71t-71 30t-70.5 -30t-29.5 -71z" />
    <glyph glyph-name="ae" unicode="&#xe6;" horiz-adv-x="1744" 
d="M90 279q0 92 44 153.5t114.5 99t158 53t171.5 15.5h186v191q0 207 -203 206q-141 0 -210.5 -14t-86.5 -68h-65v140q96 12 202.5 24.5t190.5 12.5q219 0 311 -109q68 57 150 83t170 26q113 0 194.5 -42t134 -111t78 -155t25.5 -174v-92h-682q0 -231 59.5 -343t216.5 -112
q90 0 164 11.5t158 46.5v-92q-72 -29 -150 -41.5t-178 -12.5q-94 0 -169 14.5t-134 47.5q-94 -31 -196.5 -46.5t-231.5 -15.5q-90 0 -167 12.5t-133 46.5t-89 92t-33 153zM305 272q0 -68 17.5 -109.5t48 -65t71.5 -33t88 -9.5q66 0 126.5 15.5t107.5 31.5v416
q-109 0 -194 -9t-144 -34.5t-90 -74t-31 -128.5zM975 600h477q0 199 -48 300t-183 101q-137 0 -191.5 -105t-54.5 -296z" />
    <glyph glyph-name="ccedilla" unicode="&#xe7;" horiz-adv-x="1011" 
d="M111 526q0 283 123.5 424.5t390.5 141.5q47 0 85 -2.5t72.5 -7.5t70.5 -12t79 -15v-125h-68q-8 35 -71.5 53t-157.5 18q-76 0 -131 -25.5t-92 -80.5t-54.5 -144t-17.5 -216q0 -250 66.5 -362t230.5 -112q84 0 148.5 14.5t138.5 43.5v-92q-84 -29 -155 -40.5t-161 -11.5
q-111 0 -202 20.5t-156.5 80t-102 167t-36.5 283.5zM481 -139l21 67h114q66 -25 95.5 -73t33.5 -103q0 -41 -15 -74.5t-39.5 -57t-52.5 -37t-52 -13.5l-51 86q41 2 70.5 27.5t29.5 70.5q0 59 -47 83t-107 24z" />
    <glyph glyph-name="egrave" unicode="&#xe8;" horiz-adv-x="1112" 
d="M100 530q0 158 42 265.5t111 173t157 94.5t180 29q113 0 194.5 -42t134 -111t78 -155t25.5 -174v-92h-682q0 -231 59.5 -343t216.5 -112q90 0 164 11.5t158 46.5v-92q-72 -29 -149.5 -41.5t-178.5 -12.5q-127 0 -222 29t-158.5 93.5t-96.5 171t-33 261.5zM336 1470h192
l136 -276h-99zM342 600h477q0 199 -48 300t-183 101q-137 0 -191.5 -105t-54.5 -296z" />
    <glyph glyph-name="eacute" unicode="&#xe9;" horiz-adv-x="1112" 
d="M100 530q0 158 42 265.5t111 173t157 94.5t180 29q113 0 194.5 -42t134 -111t78 -155t25.5 -174v-92h-682q0 -231 59.5 -343t216.5 -112q90 0 164 11.5t158 46.5v-92q-72 -29 -149.5 -41.5t-178.5 -12.5q-127 0 -222 29t-158.5 93.5t-96.5 171t-33 261.5zM342 600h477
q0 199 -48 300t-183 101q-137 0 -191.5 -105t-54.5 -296zM535 1194l135 276h192l-229 -276h-98z" />
    <glyph glyph-name="ecircumflex" unicode="&#xea;" horiz-adv-x="1112" 
d="M100 530q0 158 42 265.5t111 173t157 94.5t180 29q113 0 194.5 -42t134 -111t78 -155t25.5 -174v-92h-682q0 -231 59.5 -343t216.5 -112q90 0 164 11.5t158 46.5v-92q-72 -29 -149.5 -41.5t-178.5 -12.5q-127 0 -222 29t-158.5 93.5t-96.5 171t-33 261.5zM342 600h477
q0 199 -48 300t-183 101q-137 0 -191.5 -105t-54.5 -296zM346 1194l166 276h160l166 -276h-97l-149 168l-150 -168h-96z" />
    <glyph glyph-name="edieresis" unicode="&#xeb;" horiz-adv-x="1112" 
d="M100 530q0 158 42 265.5t111 173t157 94.5t180 29q113 0 194.5 -42t134 -111t78 -155t25.5 -174v-92h-682q0 -231 59.5 -343t216.5 -112q90 0 164 11.5t158 46.5v-92q-72 -29 -149.5 -41.5t-178.5 -12.5q-127 0 -222 29t-158.5 93.5t-96.5 171t-33 261.5zM315 1358
q0 49 29 77.5t78 28.5q51 0 78.5 -28.5t27.5 -77.5t-27.5 -78t-78.5 -29q-49 0 -78 29t-29 78zM342 600h477q0 199 -48 300t-183 101q-137 0 -191.5 -105t-54.5 -296zM645 1358q0 49 27.5 77.5t79.5 28.5q49 0 77.5 -28.5t28.5 -77.5t-28.5 -78t-77.5 -29q-51 0 -79 29
t-28 78z" />
    <glyph glyph-name="igrave" unicode="&#xec;" horiz-adv-x="548" 
d="M2 1470h193l135 -276h-99zM127 0v45q16 0 30.5 12.5t14.5 38.5v873q0 27 -13.5 39t-31.5 12v45h250v-969q0 -27 14.5 -39t30.5 -12v-45h-295z" />
    <glyph glyph-name="iacute" unicode="&#xed;" horiz-adv-x="548" 
d="M127 0v45q16 0 30.5 12.5t14.5 38.5v873q0 27 -13.5 39t-31.5 12v45h250v-969q0 -27 14.5 -39t30.5 -12v-45h-295zM211 1194l135 276h193l-230 -276h-98z" />
    <glyph glyph-name="icircumflex" unicode="&#xee;" horiz-adv-x="548" 
d="M27 1194l166 276h159l166 -276h-96l-150 168l-149 -168h-96zM127 0v45q16 0 30.5 12.5t14.5 38.5v873q0 27 -13.5 39t-31.5 12v45h250v-969q0 -27 14.5 -39t30.5 -12v-45h-295z" />
    <glyph glyph-name="idieresis" unicode="&#xef;" horiz-adv-x="548" 
d="M18 1358q0 49 29 77.5t78 28.5q51 0 78.5 -28.5t27.5 -77.5t-27.5 -78t-78.5 -29q-49 0 -78 29t-29 78zM127 0v45q16 0 30.5 12.5t14.5 38.5v873q0 27 -13.5 39t-31.5 12v45h250v-969q0 -27 14.5 -39t30.5 -12v-45h-295zM317 1358q0 49 28 77.5t79 28.5q49 0 77.5 -28.5
t28.5 -77.5t-28.5 -78t-77.5 -29q-51 0 -79 29t-28 78z" />
    <glyph glyph-name="ntilde" unicode="&#xf1;" horiz-adv-x="1212" 
d="M127 0v45q16 0 30.5 12.5t14.5 38.5v926q41 12 101.5 24.5t129 22.5t139 16.5t132.5 6.5q111 0 181.5 -17.5t111.5 -57.5t57 -106.5t16 -162.5v-652q0 -51 41 -51v-45h-245v733q0 82 -15.5 134.5t-46.5 82t-76 40.5t-102 11q-66 0 -122 -19t-97 -52v-834q0 -27 12 -39
t29 -12v-45h-291zM293 1266q8 49 29 88q16 33 47.5 60.5t85.5 27.5q43 0 78.5 -13.5t68.5 -30t64.5 -29.5t66.5 -13q29 0 49.5 11t32.5 28q14 16 21 39l69 -27q-8 -51 -28 -88q-16 -35 -49 -61.5t-85 -26.5q-49 0 -88 13t-72.5 29.5t-63.5 30t-62 13.5q-31 0 -49.5 -12.5
t-28.5 -26.5q-12 -18 -17 -39z" />
    <glyph glyph-name="ograve" unicode="&#xf2;" horiz-adv-x="1177" 
d="M100 532q0 158 35 264.5t99.5 172t154.5 94.5t201 29t200 -29t153.5 -94.5t99 -172t34.5 -264.5t-34.5 -264t-99 -171.5t-154 -94.5t-199.5 -29q-111 0 -201 29t-154.5 94.5t-99.5 172t-35 263.5zM319 532q0 -92 10.5 -177t40 -151.5t83 -105.5t137.5 -39t137 39
t83 105.5t40 151.5t10 177t-10 177.5t-40 152t-83 105.5t-137 39t-137.5 -39t-83 -105.5t-40 -151.5t-10.5 -178zM338 1470h192l136 -276h-99z" />
    <glyph glyph-name="oacute" unicode="&#xf3;" horiz-adv-x="1177" 
d="M100 532q0 158 35 264.5t99.5 172t154.5 94.5t201 29t200 -29t153.5 -94.5t99 -172t34.5 -264.5t-34.5 -264t-99 -171.5t-154 -94.5t-199.5 -29q-111 0 -201 29t-154.5 94.5t-99.5 172t-35 263.5zM319 532q0 -92 10.5 -177t40 -151.5t83 -105.5t137.5 -39t137 39
t83 105.5t40 151.5t10 177t-10 177.5t-40 152t-83 105.5t-137 39t-137.5 -39t-83 -105.5t-40 -151.5t-10.5 -178zM535 1194l135 276h192l-229 -276h-98z" />
    <glyph glyph-name="ocircumflex" unicode="&#xf4;" horiz-adv-x="1177" 
d="M100 532q0 158 35 264.5t99.5 172t154.5 94.5t201 29t200 -29t153.5 -94.5t99 -172t34.5 -264.5t-34.5 -264t-99 -171.5t-154 -94.5t-199.5 -29q-111 0 -201 29t-154.5 94.5t-99.5 172t-35 263.5zM319 532q0 -92 10.5 -177t40 -151.5t83 -105.5t137.5 -39t137 39
t83 105.5t40 151.5t10 177t-10 177.5t-40 152t-83 105.5t-137 39t-137.5 -39t-83 -105.5t-40 -151.5t-10.5 -178zM348 1194l166 276h160l166 -276h-97l-149 168l-150 -168h-96z" />
    <glyph glyph-name="otilde" unicode="&#xf5;" horiz-adv-x="1177" 
d="M100 532q0 158 35 264.5t99.5 172t154.5 94.5t201 29t200 -29t153.5 -94.5t99 -172t34.5 -264.5t-34.5 -264t-99 -171.5t-154 -94.5t-199.5 -29q-111 0 -201 29t-154.5 94.5t-99.5 172t-35 263.5zM293 1266q8 49 29 88q16 33 47.5 60.5t85.5 27.5q43 0 78.5 -13.5
t68.5 -30t64.5 -29.5t66.5 -13q29 0 49.5 11t32.5 28q14 16 21 39l69 -27q-8 -51 -28 -88q-16 -35 -49 -61.5t-85 -26.5q-49 0 -88 13t-72.5 29.5t-63.5 30t-62 13.5q-31 0 -49.5 -12.5t-28.5 -26.5q-12 -18 -17 -39zM319 532q0 -92 10.5 -177t40 -151.5t83 -105.5
t137.5 -39t137 39t83 105.5t40 151.5t10 177t-10 177.5t-40 152t-83 105.5t-137 39t-137.5 -39t-83 -105.5t-40 -151.5t-10.5 -178z" />
    <glyph glyph-name="odieresis" unicode="&#xf6;" horiz-adv-x="1177" 
d="M100 532q0 158 35 264.5t99.5 172t154.5 94.5t201 29t200 -29t153.5 -94.5t99 -172t34.5 -264.5t-34.5 -264t-99 -171.5t-154 -94.5t-199.5 -29q-111 0 -201 29t-154.5 94.5t-99.5 172t-35 263.5zM315 1358q0 49 29 77.5t78 28.5q51 0 78.5 -28.5t27.5 -77.5t-27.5 -78
t-78.5 -29q-49 0 -78 29t-29 78zM319 532q0 -92 10.5 -177t40 -151.5t83 -105.5t137.5 -39t137 39t83 105.5t40 151.5t10 177t-10 177.5t-40 152t-83 105.5t-137 39t-137.5 -39t-83 -105.5t-40 -151.5t-10.5 -178zM645 1358q0 49 27.5 77.5t79.5 28.5q49 0 77.5 -28.5
t28.5 -77.5t-28.5 -78t-77.5 -29q-51 0 -79 29t-28 78z" />
    <glyph glyph-name="divide" unicode="&#xf7;" 
d="M111 557v117h921v-117h-921zM469 362q0 41 30.5 71t71.5 30t71 -30t30 -71t-30 -71.5t-71 -30.5t-71.5 30.5t-30.5 71.5zM469 868q0 41 30.5 71t71.5 30t71 -30t30 -71t-30 -71.5t-71 -30.5t-71.5 30.5t-30.5 71.5z" />
    <glyph glyph-name="oslash" unicode="&#xf8;" horiz-adv-x="1177" 
d="M100 -25l111 146q-53 66 -82 167t-29 244q0 158 35 264.5t99.5 172t154.5 94.5t201 29q88 0 163.5 -18.5t135.5 -59.5l59 78h129l-112 -148q53 -66 82.5 -167.5t29.5 -244.5q0 -158 -34.5 -264t-99 -171.5t-154 -94.5t-199.5 -29q-90 0 -167 17.5t-136 58.5l-56 -74h-131
zM319 532q0 -66 4.5 -126t16.5 -113l455 596q-31 53 -81 85t-124 32q-84 0 -137.5 -39t-83 -105.5t-40 -151.5t-10.5 -178zM383 176q31 -53 81 -85t126 -32q84 0 137 39t83 105.5t40 151.5t10 177q0 66 -5 127.5t-17 114.5z" />
    <glyph glyph-name="ugrave" unicode="&#xf9;" horiz-adv-x="1212" 
d="M127 1020v45h250v-680q0 -166 48 -242.5t165 -76.5q66 0 132 14t114 43v846q0 27 -13.5 39t-31.5 12v45h249v-1022q-80 -20 -157 -35q-66 -12 -142.5 -22.5t-136.5 -10.5q-111 0 -191.5 17.5t-135 57.5t-80 106.5t-25.5 162.5v650q0 27 -14.5 39t-30.5 12zM352 1470h193
l135 -276h-98z" />
    <glyph glyph-name="uacute" unicode="&#xfa;" horiz-adv-x="1212" 
d="M127 1020v45h250v-680q0 -166 48 -242.5t165 -76.5q66 0 132 14t114 43v846q0 27 -13.5 39t-31.5 12v45h249v-1022q-80 -20 -157 -35q-66 -12 -142.5 -22.5t-136.5 -10.5q-111 0 -191.5 17.5t-135 57.5t-80 106.5t-25.5 162.5v650q0 27 -14.5 39t-30.5 12zM518 1194
l135 276h193l-230 -276h-98z" />
    <glyph glyph-name="ucircumflex" unicode="&#xfb;" horiz-adv-x="1212" 
d="M127 1020v45h250v-680q0 -166 48 -242.5t165 -76.5q66 0 132 14t114 43v846q0 27 -13.5 39t-31.5 12v45h249v-1022q-80 -20 -157 -35q-66 -12 -142.5 -22.5t-136.5 -10.5q-111 0 -191.5 17.5t-135 57.5t-80 106.5t-25.5 162.5v650q0 27 -14.5 39t-30.5 12zM342 1194
l166 276h160l166 -276h-97l-149 168l-150 -168h-96z" />
    <glyph glyph-name="udieresis" unicode="&#xfc;" horiz-adv-x="1212" 
d="M127 1020v45h250v-680q0 -166 48 -242.5t165 -76.5q66 0 132 14t114 43v846q0 27 -13.5 39t-31.5 12v45h249v-1022q-80 -20 -157 -35q-66 -12 -142.5 -22.5t-136.5 -10.5q-111 0 -191.5 17.5t-135 57.5t-80 106.5t-25.5 162.5v650q0 27 -14.5 39t-30.5 12zM319 1358
q0 49 29 77.5t78 28.5q51 0 78.5 -28.5t27.5 -77.5t-27.5 -78t-78.5 -29q-49 0 -78 29t-29 78zM649 1358q0 49 28 77.5t79 28.5q49 0 77.5 -28.5t28.5 -77.5t-28.5 -78t-77.5 -29q-51 0 -79 29t-28 78z" />
    <glyph glyph-name="yacute" unicode="&#xfd;" horiz-adv-x="958" 
d="M18 1020v45h256l269 -846l268 846h129l-375 -1180q-33 -104 -74.5 -167.5t-89 -98.5t-97.5 -46t-99 -11q-33 0 -63.5 2t-69.5 6v100q43 -6 92 -6q92 0 161.5 44t100.5 145l47 147h-82l-313 981q-8 27 -25.5 33t-34.5 6zM483 1194l135 276h193l-229 -276h-99z" />
    <glyph glyph-name="ydieresis" unicode="&#xff;" horiz-adv-x="958" 
d="M18 1020v45h256l269 -846l268 846h129l-375 -1180q-33 -104 -74.5 -167.5t-89 -98.5t-97.5 -46t-99 -11q-33 0 -63.5 2t-69.5 6v100q43 -6 92 -6q92 0 161.5 44t100.5 145l47 147h-82l-313 981q-8 27 -25.5 33t-34.5 6zM254 1358q0 49 28.5 77.5t77.5 28.5q51 0 79 -28.5
t28 -77.5t-27.5 -78t-79.5 -29q-49 0 -77.5 29t-28.5 78zM584 1358q0 49 27.5 77.5t78.5 28.5q49 0 78 -28.5t29 -77.5t-29 -78t-78 -29q-51 0 -78.5 29t-27.5 78z" />
    <glyph glyph-name="OE" unicode="&#x152;" horiz-adv-x="1921" 
d="M111 717q0 383 149.5 562t456.5 179q96 0 180 -26.5t150 -71.5v74h763v-111h-512v-457h330v-102h-330v-653h560v-111h-811v80q-66 -57 -149 -81t-181 -24q-307 0 -456.5 178.5t-149.5 563.5zM389 717q0 -195 22.5 -321t64.5 -198.5t102.5 -100t138.5 -27.5q76 0 137 27.5
t103 100t64.5 198.5t22.5 321t-22.5 320.5t-64.5 198.5t-103 100.5t-137 27.5q-78 0 -138.5 -27.5t-102.5 -100.5t-64.5 -199t-22.5 -320z" />
    <glyph glyph-name="oe" unicode="&#x153;" horiz-adv-x="1851" 
d="M100 532q0 158 35 264.5t99.5 172t154.5 94.5t201 29q121 0 215 -34t160 -114q72 84 167 119t197 35q113 0 195 -42t134 -110.5t77.5 -154.5t25.5 -175v-92h-682q0 -231 59.5 -342.5t217.5 -111.5q90 0 163.5 11t157.5 46v-92q-72 -29 -149.5 -41t-177.5 -12
q-133 0 -229.5 30.5t-159.5 102.5q-66 -78 -160 -110t-211 -32q-111 0 -201 29t-154.5 94.5t-99.5 172t-35 263.5zM319 532q0 -92 10.5 -177t40 -151.5t83 -105.5t137.5 -39t137 39t83 105.5t40 151.5t10 177t-10 177.5t-40 152t-83 105.5t-137 39t-137.5 -39t-83 -105.5
t-40 -151.5t-10.5 -178zM1081 606h478q0 199 -48.5 300.5t-183.5 101.5q-137 0 -191.5 -105.5t-54.5 -296.5z" />
    <glyph glyph-name="Ydieresis" unicode="&#x178;" horiz-adv-x="1136" 
d="M18 1389v45h304l301 -617l348 617h147l-811 -1434h-147l311 553l-401 807q-10 20 -24.5 24.5t-27.5 4.5zM336 1675q0 53 31.5 84t85.5 31q53 0 83.5 -30.5t30.5 -84.5q0 -53 -30.5 -83.5t-83.5 -30.5t-85 30.5t-32 83.5zM692 1675q0 53 31 84t84 31t85 -30.5t32 -84.5
q0 -53 -32 -83.5t-85 -30.5t-84 30.5t-31 83.5z" />
    <glyph glyph-name="circumflex" unicode="&#x2c6;" horiz-adv-x="880" 
d="M195 1194l165 276h160l166 -276h-96l-150 168l-149 -168h-96z" />
    <glyph glyph-name="tilde" unicode="&#x2dc;" horiz-adv-x="1021" 
d="M205 1266q8 49 28 88q16 33 48 60.5t86 27.5q43 0 78.5 -13.5t68.5 -30t64.5 -29.5t66.5 -13q29 0 49.5 11t32.5 28q14 16 21 39l69 -27q-8 -51 -29 -88q-16 -35 -48.5 -61.5t-84.5 -26.5q-49 0 -88 13t-72.5 29.5t-63.5 30t-62 13.5q-31 0 -49.5 -12.5t-28.5 -26.5
q-12 -18 -17 -39z" />
    <glyph glyph-name="uni2000" unicode="&#x2000;" horiz-adv-x="934" 
 />
    <glyph glyph-name="uni2001" unicode="&#x2001;" horiz-adv-x="1868" 
 />
    <glyph glyph-name="uni2002" unicode="&#x2002;" horiz-adv-x="934" 
 />
    <glyph glyph-name="uni2003" unicode="&#x2003;" horiz-adv-x="1868" 
 />
    <glyph glyph-name="uni2004" unicode="&#x2004;" horiz-adv-x="622" 
 />
    <glyph glyph-name="uni2005" unicode="&#x2005;" horiz-adv-x="467" 
 />
    <glyph glyph-name="uni2006" unicode="&#x2006;" horiz-adv-x="311" 
 />
    <glyph glyph-name="uni2007" unicode="&#x2007;" horiz-adv-x="311" 
 />
    <glyph glyph-name="uni2008" unicode="&#x2008;" horiz-adv-x="233" 
 />
    <glyph glyph-name="uni2009" unicode="&#x2009;" horiz-adv-x="373" 
 />
    <glyph glyph-name="uni200A" unicode="&#x200a;" horiz-adv-x="103" 
 />
    <glyph glyph-name="uni2010" unicode="&#x2010;" horiz-adv-x="819" 
d="M111 555v164h598v-164h-598z" />
    <glyph glyph-name="uni2011" unicode="&#x2011;" horiz-adv-x="819" 
d="M111 555v164h598v-164h-598z" />
    <glyph glyph-name="figuredash" unicode="&#x2012;" horiz-adv-x="819" 
d="M111 555v164h598v-164h-598z" />
    <glyph glyph-name="endash" unicode="&#x2013;" 
d="M111 555v164h921v-164h-921z" />
    <glyph glyph-name="emdash" unicode="&#x2014;" horiz-adv-x="1724" 
d="M111 555v164h1503v-164h-1503z" />
    <glyph glyph-name="quoteleft" unicode="&#x2018;" horiz-adv-x="456" 
d="M90 1090q0 63 20.5 118.5t54.5 101.5t77 84t86 66l39 -59q-23 -18 -46.5 -42t-43 -51.5t-32 -58t-12.5 -63.5q0 -10 2.5 -20.5t6.5 -20.5q47 0 85 -26.5t38 -94.5q0 -37 -13.5 -59.5t-33 -37t-42 -19.5t-40.5 -5q-78 0 -112 52.5t-34 134.5z" />
    <glyph glyph-name="quoteright" unicode="&#x2019;" horiz-adv-x="477" 
d="M90 963q23 18 46.5 41.5t43 51t31.5 58.5t12 64q0 10 -2 20.5t-6 20.5q-47 0 -85 26.5t-38 93.5q0 37 13.5 59.5t33 37t42 19.5t40.5 5q78 0 112 -52t34 -134q0 -63 -20.5 -118.5t-54.5 -101.5t-77 -84t-86 -67z" />
    <glyph glyph-name="quotesinglbase" unicode="&#x201a;" horiz-adv-x="456" 
d="M90 -256q23 18 46.5 42t43 51.5t31.5 58t12 63.5q0 10 -2 20.5t-6 20.5q-47 0 -85 26.5t-38 94.5q0 37 13.5 59.5t33 36.5t42 19.5t40.5 5.5q78 0 112 -52.5t34 -134.5q0 -63 -20.5 -118.5t-54.5 -101.5t-77 -84t-86 -66z" />
    <glyph glyph-name="quotedblleft" unicode="&#x201c;" horiz-adv-x="831" 
d="M90 1087q0 63 20.5 119t54.5 102t77 84t86 66l39 -59q-23 -18 -46.5 -42t-43 -51.5t-32 -58t-12.5 -63.5q0 -10 2.5 -20.5t6.5 -20.5q47 0 85 -26.5t38 -94.5q0 -37 -13.5 -59.5t-33 -37t-42 -19.5t-40.5 -5q-78 0 -112 52.5t-34 133.5zM465 1087q0 63 20.5 119t54 102
t76.5 84t86 66l39 -59q-23 -18 -46 -42t-42.5 -51.5t-32 -58t-12.5 -63.5q0 -10 2 -20.5t6 -20.5q47 0 85 -26.5t38 -94.5q0 -37 -13 -59.5t-32.5 -37t-42 -19.5t-41.5 -5q-78 0 -111.5 52.5t-33.5 133.5z" />
    <glyph glyph-name="quotedblright" unicode="&#x201d;" horiz-adv-x="831" 
d="M90 961q23 18 46.5 41.5t43 51t31.5 58.5t12 64q0 10 -2 20.5t-6 20.5q-47 0 -85 26.5t-38 93.5q0 37 13.5 59.5t33 37t42 19.5t40.5 5q78 0 112 -52t34 -134q0 -63 -20.5 -118.5t-54.5 -101.5t-77 -84t-86 -67zM465 961q23 18 46.5 41.5t42.5 51t31.5 58.5t12.5 64
q0 10 -2 20.5t-6 20.5q-47 0 -85 26.5t-38 93.5q0 37 13.5 59.5t32.5 37t42 19.5t41 5q78 0 111.5 -52t33.5 -134q0 -63 -20.5 -118.5t-54 -101.5t-76.5 -84t-86 -67z" />
    <glyph glyph-name="quotedblbase" unicode="&#x201e;" horiz-adv-x="831" 
d="M90 -256q23 18 46.5 42t43 51.5t31.5 58t12 63.5q0 10 -2 20.5t-6 20.5q-47 0 -85 26.5t-38 94.5q0 37 13.5 59.5t33 36.5t42 19.5t40.5 5.5q78 0 112 -52.5t34 -134.5q0 -63 -20.5 -118.5t-54.5 -101.5t-77 -84t-86 -66zM465 -256q23 18 46.5 42t42.5 51.5t31.5 58
t12.5 63.5q0 10 -2 20.5t-6 20.5q-47 0 -85 26.5t-38 94.5q0 37 13.5 59.5t32.5 36.5t42 19.5t41 5.5q78 0 111.5 -52.5t33.5 -134.5q0 -63 -20.5 -118.5t-54 -101.5t-76.5 -84t-86 -66z" />
    <glyph glyph-name="bullet" unicode="&#x2022;" horiz-adv-x="708" 
d="M143 449v421h422v-421h-422z" />
    <glyph glyph-name="uni202F" unicode="&#x202f;" horiz-adv-x="373" 
 />
    <glyph glyph-name="guilsinglleft" unicode="&#x2039;" horiz-adv-x="595" 
d="M90 532l313 451l103 -72l-268 -379l266 -378l-101 -72z" />
    <glyph glyph-name="guilsinglright" unicode="&#x203a;" horiz-adv-x="595" 
d="M90 911l103 72l313 -451l-313 -450l-101 72l266 378z" />
    <glyph glyph-name="uni205F" unicode="&#x205f;" horiz-adv-x="467" 
 />
    <glyph glyph-name="Euro" unicode="&#x20ac;" horiz-adv-x="1355" 
d="M111 545v102h202v76t2 47h-204v102h213q14 111 51 204t104.5 162t169 107.5t244.5 38.5q98 0 183 -14t181 -39v-125h-55q-4 27 -66.5 52.5t-207.5 25.5q-53 0 -107.5 -11t-100.5 -52t-81 -123t-49 -226h540l-47 -102h-499q-2 -25 -2 -52.5v-70.5h444l-47 -102h-395
q6 -104 25.5 -185t59.5 -137.5t102.5 -85t152.5 -28.5h278v-109h-323q-127 0 -226.5 28.5t-169 93t-110.5 168t-54 255.5h-208z" />
    <glyph glyph-name="trademark" unicode="&#x2122;" horiz-adv-x="1488" 
d="M59 1350v84h510v-84h-28q0 20 -21 20h-139v-661h-133v661h-139q-20 0 -21 -20h-29zM639 1403v31h180l223 -531l185 531h192v-31q-23 0 -22 -23v-620q0 -20 22 -21v-30h-157v606q-53 -152 -108.5 -303.5t-109.5 -302.5h-69l-242 577v-530q0 -10 7.5 -13.5t15.5 -3.5v-30
h-94v671q0 23 -23 23z" />
    <glyph glyph-name="uni25FC" unicode="&#x25fc;" horiz-adv-x="1064" 
d="M0 0v1065h1065v-1065h-1065z" />
    <glyph glyph-name="uniFB03" unicode="&#xfb03;" horiz-adv-x="1761" 
d="M127 0v45q16 0 30.5 12.5t14.5 38.5v1182q0 84 47 138t117 83q59 23 142 30t181 7q141 0 212 -7t100 -20q59 16 134 21.5t161 5.5q78 0 126 -3t76.5 -7t44 -10.5t27.5 -12.5q57 -35 57 -112q0 -61 -35.5 -97.5t-97.5 -36.5q-61 0 -97 36t-36 98v22t4 23q-29 4 -60.5 4
h-76.5q-63 0 -105 -12.5t-67 -33t-34 -47t-9 -55.5v-227h606v-979q0 -23 13.5 -32t29.5 -9v-45h-293v45q16 0 30.5 12.5t14.5 38.5v879h-401v-881q0 -25 13.5 -37t29.5 -12v-45h-293v45q16 0 30.5 12.5t14.5 38.5v879h-401v-881q0 -25 13 -37t30 -12v-45h-293zM377 1065h401
v213q0 49 17.5 87t46.5 69q-25 2 -59.5 3t-70.5 2t-69 1h-51q-63 0 -105.5 -13.5t-67 -34t-33.5 -47t-9 -53.5v-227z" />
    <glyph glyph-name="uniFB04" unicode="&#xfb04;" horiz-adv-x="1804" 
d="M127 0v45q16 0 30.5 12.5t14.5 38.5v1182q0 80 36 130t100.5 79t153.5 39t197 10q141 0 212 -8t100 -21q57 16 127.5 22.5t156.5 6.5q135 0 221.5 -9t151.5 -16v-1290q0 -59 16.5 -93t59.5 -34v-108q-135 0 -208 64.5t-73 174.5v1205q-37 4 -95 6t-95 2
q-137 0 -193.5 -36t-56.5 -102v-235h303v-90h-303v-881q0 -25 13.5 -37t29.5 -12v-45h-293v45q16 0 30.5 12.5t14.5 38.5v879h-401v-881q0 -25 13 -37t30 -12v-45h-293zM377 1065h401v221q0 45 16.5 82t45.5 66q-25 2 -60 3t-70.5 2t-67.5 1h-50q-63 0 -105.5 -13.5t-67 -34
t-33.5 -47t-9 -53.5v-227z" />
    </font>
</defs>
</svg>
