<?xml version="1.0" standalone="no"?>
<!DOCTYPE svg PUBLIC "-//W3C//DTD SVG 1.1//EN" "http://www.w3.org/Graphics/SVG/1.1/DTD/svg11.dtd" >
<svg xmlns="http://www.w3.org/2000/svg" xmlns:xlink="http://www.w3.org/1999/xlink" version="1.1">
<metadata>
Created by FontForge 20190801 at Fri Nov  8 14:15:42 2019
 By Unknown
Copyright 2019 Copyright AC Milan
</metadata>
<defs>
<font id="MilanPulseBeta1-Regular" horiz-adv-x="654" >
  <font-face 
    font-family="MilanPulse Beta1"
    font-weight="400"
    font-stretch="normal"
    units-per-em="1000"
    panose-1="0 0 0 0 0 0 0 0 0 0"
    ascent="800"
    descent="-200"
    x-height="800"
    cap-height="800"
    bbox="-30 -382 1447 1132"
    underline-thickness="50"
    underline-position="-100"
    stemh="142"
    stemv="229"
    unicode-range="U+000D-F6C3"
  />
<missing-glyph horiz-adv-x="864" 
d="M80 -382v1514h704v-1514h-704zM180 -282h504v1314h-504v-1314z" />
    <glyph glyph-name=".notdef" horiz-adv-x="864" 
d="M80 -382v1514h704v-1514h-704zM180 -282h504v1314h-504v-1314z" />
    <glyph glyph-name=".null" horiz-adv-x="0" 
 />
    <glyph glyph-name="CR" unicode="&#xd;" horiz-adv-x="0" 
 />
    <glyph glyph-name="space" unicode=" " horiz-adv-x="330" 
 />
    <glyph glyph-name="uni00A0" unicode="&#xa0;" horiz-adv-x="330" 
 />
    <glyph glyph-name="A" unicode="A" horiz-adv-x="656" 
d="M449 0l-29 206h-191l-29 -206h-175l95 624c20 129 82 189 206 189c125 0 190 -60 210 -189l95 -624h-182zM291 645l-42 -299h151l-42 299c-3 23 -14 31 -33 31c-20 0 -31 -8 -34 -31z" />
    <glyph glyph-name="B" unicode="B" horiz-adv-x="652" 
d="M60 0v800h333c130 0 202 -77 202 -174v-22c0 -68 -41 -125 -123 -146v-6c98 -20 150 -95 150 -192v-48c0 -144 -85 -212 -224 -212h-338zM353 666h-112v-201h112c41 0 68 20 68 63v75c0 43 -27 63 -68 63zM378 335h-137v-201h137c41 0 68 20 68 63v67c0 45 -19 71 -68 71
z" />
    <glyph glyph-name="C" unicode="C" horiz-adv-x="631" 
d="M586 513h-178v77c0 66 -23 88 -87 88s-87 -22 -87 -88v-380c0 -65 23 -88 87 -88s87 23 87 88v102h178v-85c0 -161 -79 -240 -265 -240c-190 0 -269 79 -269 240v346c0 161 80 240 269 240c187 0 265 -79 265 -240v-60z" />
    <glyph glyph-name="D" unicode="D" horiz-adv-x="664" 
d="M351 0h-291v800h291c164 0 261 -80 261 -244v-312c0 -164 -97 -244 -261 -244zM351 665h-109v-530h109c57 0 79 26 79 94v342c0 68 -22 94 -79 94z" />
    <glyph glyph-name="E" unicode="E" horiz-adv-x="540" 
d="M498 135v-135h-175c-169 0 -271 84 -271 254v292c0 170 102 254 271 254h175v-135h-175c-64 0 -89 -31 -89 -84v-112h249v-135h-249v-115c0 -53 25 -84 89 -84h175z" />
    <glyph glyph-name="F" unicode="F" horiz-adv-x="536" 
d="M486 297h-249v-297h-182v546c0 170 102 254 271 254h175v-135h-175c-64 0 -89 -31 -89 -84v-149h249v-135z" />
    <glyph glyph-name="G" unicode="G" horiz-adv-x="650" 
d="M328 419h270v-419h-160v83h-5c-27 -64 -84 -96 -166 -96c-143 0 -215 80 -215 244v338c0 154 74 244 275 244c199 0 271 -90 271 -244v-20h-178v41c0 64 -27 88 -93 88s-93 -24 -93 -88v-380c0 -63 27 -88 96 -88c64 0 96 25 96 88v77h-98v132z" />
    <glyph glyph-name="H" unicode="H" horiz-adv-x="680" 
d="M438 0v334h-196v-334h-182v800h182v-323h196v323h182v-800h-182z" />
    <glyph glyph-name="I" unicode="I" horiz-adv-x="302" 
d="M60 0v800h182v-800h-182z" />
    <glyph glyph-name="J" unicode="J" horiz-adv-x="616" 
d="M379 800h182v-569c0 -163 -81 -244 -270 -244c-187 0 -266 81 -266 244v88h178v-113c0 -60 24 -84 88 -84c63 0 88 24 88 84v594z" />
    <glyph glyph-name="K" unicode="K" horiz-adv-x="671" 
d="M351 332h-109v-332h-182v800h182v-333h5l204 333h182l-205 -338c133 -19 194 -101 194 -224v-238h-182v238c0 59 -25 94 -89 94z" />
    <glyph glyph-name="L" unicode="L" horiz-adv-x="509" 
d="M237 800v-591c0 -50 23 -74 80 -74h172v-135h-192c-143 0 -242 83 -242 225v575h182z" />
    <glyph glyph-name="M" unicode="M" horiz-adv-x="972" 
d="M237 592v-592h-182v582c0 146 75 231 244 231c73 0 143 -22 187 -71c44 49 113 71 187 71c169 0 244 -85 244 -231v-582h-182v592c0 57 -23 79 -79 79s-79 -22 -79 -79v-592h-182v592c0 57 -23 79 -79 79s-79 -22 -79 -79z" />
    <glyph glyph-name="N" unicode="N" horiz-adv-x="672" 
d="M237 0h-182v569c0 164 83 244 281 244s281 -80 281 -244v-569h-182v584c0 69 -28 94 -99 94s-99 -25 -99 -94v-584z" />
    <glyph glyph-name="O" unicode="O" 
d="M52 569c0 163 83 244 275 244c193 0 275 -81 275 -244v-338c0 -163 -83 -244 -275 -244c-193 0 -275 81 -275 244v338zM234 585v-370c0 -67 26 -94 93 -94s93 27 93 94v370c0 68 -26 94 -93 94s-93 -26 -93 -94z" />
    <glyph glyph-name="P" unicode="P" horiz-adv-x="626" 
d="M60 0v800h280c185 0 256 -94 256 -212v-103c0 -118 -71 -212 -256 -212h-98v-273h-182zM340 665h-98v-257h98c51 0 76 28 76 77v103c0 49 -25 77 -76 77z" />
    <glyph glyph-name="Q" unicode="Q" horiz-adv-x="657" 
d="M642 135v-135h-315c-193 0 -275 81 -275 244v325c0 163 83 244 275 244c193 0 275 -81 275 -244v-260c0 -86 -38 -143 -126 -167v-7h166zM234 585v-356c0 -67 26 -94 93 -94s93 27 93 94v356c0 68 -26 94 -93 94s-93 -26 -93 -94z" />
    <glyph glyph-name="R" unicode="R" 
d="M60 0v800h335c130 0 202 -77 202 -174v-44c0 -74 -43 -134 -129 -155v-6c92 -23 141 -95 141 -189v-232h-175v232c0 48 -22 72 -76 72h-116v-304h-182zM355 665h-113v-227h113c40 0 67 20 67 62v103c0 42 -27 62 -67 62z" />
    <glyph glyph-name="S" unicode="S" horiz-adv-x="611" 
d="M223 599v-25c0 -40 13 -59 63 -77l83 -30c152 -55 202 -111 202 -241v-25c0 -129 -80 -214 -265 -214s-264 76 -264 225v30h178v-41c0 -58 24 -80 86 -80s86 22 86 80v25c0 46 -15 67 -87 91l-77 26c-139 47 -184 102 -184 227v29c0 135 80 214 263 214s262 -79 262 -234
v-20h-178v40c0 57 -24 80 -84 80s-84 -23 -84 -80z" />
    <glyph glyph-name="T" unicode="T" horiz-adv-x="578" 
d="M563 665h-183v-665h-182v665h-183v135h548v-135z" />
    <glyph glyph-name="U" unicode="U" horiz-adv-x="662" 
d="M425 800h182v-569c0 -164 -78 -244 -276 -244s-276 80 -276 244v569h182v-584c0 -69 23 -94 94 -94s94 25 94 94v584z" />
    <glyph glyph-name="V" unicode="V" horiz-adv-x="646" 
d="M207 800l86 -644c3 -24 15 -32 33 -32c19 0 31 8 34 32l86 644h175l-90 -624c-19 -129 -82 -189 -206 -189c-126 0 -191 60 -210 189l-90 624h182z" />
    <glyph glyph-name="W" unicode="W" horiz-adv-x="964" 
d="M909 218c0 -146 -74 -231 -242 -231c-73 0 -142 22 -185 71c-43 -49 -112 -71 -185 -71c-168 0 -242 85 -242 231v582h182v-592c0 -57 22 -79 77 -79s77 22 77 79v592h182v-592c0 -57 22 -79 77 -79s77 22 77 79v592h182v-582z" />
    <glyph glyph-name="X" unicode="X" horiz-adv-x="658" 
d="M230 245v-245h-182v230c0 111 37 182 132 214v6c-88 25 -127 88 -127 178v172h182v-236c0 -69 27 -94 94 -94s94 25 94 94v236h182v-172c0 -90 -39 -153 -127 -178v-6c95 -32 132 -103 132 -214v-230h-182v245c0 69 -28 94 -99 94s-99 -25 -99 -94z" />
    <glyph glyph-name="Y" unicode="Y" horiz-adv-x="642" 
d="M597 559c0 -126 -57 -209 -185 -234v-325h-182v325c-129 25 -185 108 -185 234v241h180v-256c0 -66 26 -92 96 -92s96 26 96 92v256h180v-241z" />
    <glyph glyph-name="Z" unicode="Z" horiz-adv-x="556" 
d="M259 135h248v-135h-265c-141 0 -212 80 -212 177c0 52 21 102 69 155l230 252c16 17 20 31 20 44c0 23 -14 37 -49 37h-251v135h265c141 0 212 -77 212 -171c0 -54 -17 -100 -70 -160l-226 -253c-15 -17 -20 -31 -20 -44c0 -23 14 -37 49 -37z" />
    <glyph glyph-name="AE" unicode="&#xc6;" horiz-adv-x="898" 
d="M681 0c-148 0 -233 57 -259 206h-193l-29 -206h-175l95 624c20 129 82 189 205 189c60 0 108 -19 142 -62c32 33 81 49 143 49h246v-135h-246c-60 0 -82 -34 -73 -93l16 -103h288v-135h-267l18 -115c10 -66 37 -84 109 -84h155v-135h-175zM291 645l-42 -299h153l-43 299
c-3 23 -14 31 -34 31s-31 -8 -34 -31z" />
    <glyph glyph-name="OE" unicode="&#x152;" horiz-adv-x="908" 
d="M691 0c-73 0 -131 20 -173 59c-42 -48 -110 -72 -201 -72c-181 0 -265 81 -265 244v338c0 163 85 244 265 244c92 0 159 -24 201 -72c42 39 100 59 173 59h175v-135h-175c-64 0 -89 -31 -89 -84v-112h249v-135h-249v-115c0 -53 25 -84 89 -84h175v-135h-175zM234 584
v-368c0 -67 26 -94 93 -94s93 27 93 94v368c0 68 -26 94 -93 94s-93 -26 -93 -94z" />
    <glyph glyph-name="Lslash" unicode="&#x141;" horiz-adv-x="549" 
d="M529 135v-135h-192c-143 0 -242 83 -242 225v72l-85 -28v141l85 28v362h182v-301l145 48v-141l-145 -48v-149c0 -50 23 -74 80 -74h172z" />
    <glyph glyph-name="Oslash" unicode="&#xd8;" 
d="M327 -13c-38 0 -71 3 -100 9l-31 -78h-134l52 132c-42 41 -62 101 -62 181v338c0 163 83 244 275 244c36 0 69 -3 97 -9l30 76h138l-52 -131c43 -41 62 -101 62 -180v-338c0 -163 -83 -244 -275 -244zM224 584v-289l149 378c-13 4 -28 5 -46 5c-74 0 -103 -26 -103 -94z
M430 216v297l-152 -385c14 -4 30 -6 49 -6c74 0 103 27 103 94z" />
    <glyph glyph-name="Eth" unicode="&#xd0;" horiz-adv-x="689" 
d="M637 244c0 -164 -97 -244 -261 -244h-291v335h-75v135h75v330h291c164 0 261 -80 261 -244v-312zM267 135h109c57 0 79 26 79 94v342c0 68 -22 94 -79 94h-109v-195h91v-135h-91v-200z" />
    <glyph glyph-name="Thorn" unicode="&#xde;" horiz-adv-x="626" 
d="M340 143h-98v-143h-182v800h182v-130h98c185 0 256 -94 256 -212v-103c0 -118 -71 -212 -256 -212zM340 535h-98v-257h98c51 0 76 28 76 77v103c0 49 -25 77 -76 77z" />
    <glyph glyph-name="uni1E9E" unicode="&#x1e9e;" horiz-adv-x="690" 
d="M237 581v-581h-182v546c0 170 102 254 271 254h295l-104 -305c102 -30 143 -105 143 -193v-90c0 -118 -70 -212 -254 -212h-85v135h85c51 0 76 28 76 77v90c0 49 -25 77 -76 77h-85l105 286h-100c-64 0 -89 -31 -89 -84z" />
    <glyph glyph-name="a" unicode="a" horiz-adv-x="656" 
d="M449 0l-29 206h-191l-29 -206h-175l95 624c20 129 82 189 206 189c125 0 190 -60 210 -189l95 -624h-182zM291 645l-42 -299h151l-42 299c-3 23 -14 31 -33 31c-20 0 -31 -8 -34 -31z" />
    <glyph glyph-name="b" unicode="b" horiz-adv-x="652" 
d="M60 0v800h333c130 0 202 -77 202 -174v-22c0 -68 -41 -125 -123 -146v-6c98 -20 150 -95 150 -192v-48c0 -144 -85 -212 -224 -212h-338zM353 666h-112v-201h112c41 0 68 20 68 63v75c0 43 -27 63 -68 63zM378 335h-137v-201h137c41 0 68 20 68 63v67c0 45 -19 71 -68 71
z" />
    <glyph glyph-name="c" unicode="c" horiz-adv-x="631" 
d="M586 513h-178v77c0 66 -23 88 -87 88s-87 -22 -87 -88v-380c0 -65 23 -88 87 -88s87 23 87 88v102h178v-85c0 -161 -79 -240 -265 -240c-190 0 -269 79 -269 240v346c0 161 80 240 269 240c187 0 265 -79 265 -240v-60z" />
    <glyph glyph-name="d" unicode="d" horiz-adv-x="664" 
d="M351 0h-291v800h291c164 0 261 -80 261 -244v-312c0 -164 -97 -244 -261 -244zM351 665h-109v-530h109c57 0 79 26 79 94v342c0 68 -22 94 -79 94z" />
    <glyph glyph-name="e" unicode="e" horiz-adv-x="540" 
d="M498 135v-135h-175c-169 0 -271 84 -271 254v292c0 170 102 254 271 254h175v-135h-175c-64 0 -89 -31 -89 -84v-112h249v-135h-249v-115c0 -53 25 -84 89 -84h175z" />
    <glyph glyph-name="f" unicode="f" horiz-adv-x="536" 
d="M486 297h-249v-297h-182v546c0 170 102 254 271 254h175v-135h-175c-64 0 -89 -31 -89 -84v-149h249v-135z" />
    <glyph glyph-name="g" unicode="g" horiz-adv-x="650" 
d="M328 419h270v-419h-160v83h-5c-27 -64 -84 -96 -166 -96c-143 0 -215 80 -215 244v338c0 154 74 244 275 244c199 0 271 -90 271 -244v-20h-178v41c0 64 -27 88 -93 88s-93 -24 -93 -88v-380c0 -63 27 -88 96 -88c64 0 96 25 96 88v77h-98v132z" />
    <glyph glyph-name="h" unicode="h" horiz-adv-x="680" 
d="M438 0v334h-196v-334h-182v800h182v-323h196v323h182v-800h-182z" />
    <glyph glyph-name="i" unicode="i" horiz-adv-x="302" 
d="M60 0v800h182v-800h-182z" />
    <glyph glyph-name="j" unicode="j" horiz-adv-x="616" 
d="M379 800h182v-569c0 -163 -81 -244 -270 -244c-187 0 -266 81 -266 244v88h178v-113c0 -60 24 -84 88 -84c63 0 88 24 88 84v594z" />
    <glyph glyph-name="k" unicode="k" horiz-adv-x="671" 
d="M351 332h-109v-332h-182v800h182v-333h5l204 333h182l-205 -338c133 -19 194 -101 194 -224v-238h-182v238c0 59 -25 94 -89 94z" />
    <glyph glyph-name="l" unicode="l" horiz-adv-x="509" 
d="M237 800v-591c0 -50 23 -74 80 -74h172v-135h-192c-143 0 -242 83 -242 225v575h182z" />
    <glyph glyph-name="m" unicode="m" horiz-adv-x="972" 
d="M237 592v-592h-182v582c0 146 75 231 244 231c73 0 143 -22 187 -71c44 49 113 71 187 71c169 0 244 -85 244 -231v-582h-182v592c0 57 -23 79 -79 79s-79 -22 -79 -79v-592h-182v592c0 57 -23 79 -79 79s-79 -22 -79 -79z" />
    <glyph glyph-name="n" unicode="n" horiz-adv-x="672" 
d="M237 0h-182v569c0 164 83 244 281 244s281 -80 281 -244v-569h-182v584c0 69 -28 94 -99 94s-99 -25 -99 -94v-584z" />
    <glyph glyph-name="o" unicode="o" 
d="M52 569c0 163 83 244 275 244c193 0 275 -81 275 -244v-338c0 -163 -83 -244 -275 -244c-193 0 -275 81 -275 244v338zM234 585v-370c0 -67 26 -94 93 -94s93 27 93 94v370c0 68 -26 94 -93 94s-93 -26 -93 -94z" />
    <glyph glyph-name="p" unicode="p" horiz-adv-x="626" 
d="M60 0v800h280c185 0 256 -94 256 -212v-103c0 -118 -71 -212 -256 -212h-98v-273h-182zM340 665h-98v-257h98c51 0 76 28 76 77v103c0 49 -25 77 -76 77z" />
    <glyph glyph-name="q" unicode="q" horiz-adv-x="657" 
d="M642 135v-135h-315c-193 0 -275 81 -275 244v325c0 163 83 244 275 244c193 0 275 -81 275 -244v-260c0 -86 -38 -143 -126 -167v-7h166zM234 585v-356c0 -67 26 -94 93 -94s93 27 93 94v356c0 68 -26 94 -93 94s-93 -26 -93 -94z" />
    <glyph glyph-name="r" unicode="r" 
d="M60 0v800h335c130 0 202 -77 202 -174v-44c0 -74 -43 -134 -129 -155v-6c92 -23 141 -95 141 -189v-232h-175v232c0 48 -22 72 -76 72h-116v-304h-182zM355 665h-113v-227h113c40 0 67 20 67 62v103c0 42 -27 62 -67 62z" />
    <glyph glyph-name="s" unicode="s" horiz-adv-x="611" 
d="M223 599v-25c0 -40 13 -59 63 -77l83 -30c152 -55 202 -111 202 -241v-25c0 -129 -80 -214 -265 -214s-264 76 -264 225v30h178v-41c0 -58 24 -80 86 -80s86 22 86 80v25c0 46 -15 67 -87 91l-77 26c-139 47 -184 102 -184 227v29c0 135 80 214 263 214s262 -79 262 -234
v-20h-178v40c0 57 -24 80 -84 80s-84 -23 -84 -80z" />
    <glyph glyph-name="t" unicode="t" horiz-adv-x="578" 
d="M563 665h-183v-665h-182v665h-183v135h548v-135z" />
    <glyph glyph-name="u" unicode="u" horiz-adv-x="662" 
d="M425 800h182v-569c0 -164 -78 -244 -276 -244s-276 80 -276 244v569h182v-584c0 -69 23 -94 94 -94s94 25 94 94v584z" />
    <glyph glyph-name="v" unicode="v" horiz-adv-x="646" 
d="M207 800l86 -644c3 -24 15 -32 33 -32c19 0 31 8 34 32l86 644h175l-90 -624c-19 -129 -82 -189 -206 -189c-126 0 -191 60 -210 189l-90 624h182z" />
    <glyph glyph-name="w" unicode="w" horiz-adv-x="964" 
d="M909 218c0 -146 -74 -231 -242 -231c-73 0 -142 22 -185 71c-43 -49 -112 -71 -185 -71c-168 0 -242 85 -242 231v582h182v-592c0 -57 22 -79 77 -79s77 22 77 79v592h182v-592c0 -57 22 -79 77 -79s77 22 77 79v592h182v-582z" />
    <glyph glyph-name="x" unicode="x" horiz-adv-x="658" 
d="M230 245v-245h-182v230c0 111 37 182 132 214v6c-88 25 -127 88 -127 178v172h182v-236c0 -69 27 -94 94 -94s94 25 94 94v236h182v-172c0 -90 -39 -153 -127 -178v-6c95 -32 132 -103 132 -214v-230h-182v245c0 69 -28 94 -99 94s-99 -25 -99 -94z" />
    <glyph glyph-name="y" unicode="y" horiz-adv-x="642" 
d="M597 559c0 -126 -57 -209 -185 -234v-325h-182v325c-129 25 -185 108 -185 234v241h180v-256c0 -66 26 -92 96 -92s96 26 96 92v256h180v-241z" />
    <glyph glyph-name="z" unicode="z" horiz-adv-x="556" 
d="M259 135h248v-135h-265c-141 0 -212 80 -212 177c0 52 21 102 69 155l230 252c16 17 20 31 20 44c0 23 -14 37 -49 37h-251v135h265c141 0 212 -77 212 -171c0 -54 -17 -100 -70 -160l-226 -253c-15 -17 -20 -31 -20 -44c0 -23 14 -37 49 -37z" />
    <glyph glyph-name="ae" unicode="&#xe6;" horiz-adv-x="898" 
d="M681 0c-148 0 -233 57 -259 206h-193l-29 -206h-175l95 624c20 129 82 189 205 189c60 0 108 -19 142 -62c32 33 81 49 143 49h246v-135h-246c-60 0 -82 -34 -73 -93l16 -103h288v-135h-267l18 -115c10 -66 37 -84 109 -84h155v-135h-175zM291 645l-42 -299h153l-43 299
c-3 23 -14 31 -34 31s-31 -8 -34 -31z" />
    <glyph glyph-name="oe" unicode="&#x153;" horiz-adv-x="908" 
d="M691 0c-73 0 -131 20 -173 59c-42 -48 -110 -72 -201 -72c-181 0 -265 81 -265 244v338c0 163 85 244 265 244c92 0 159 -24 201 -72c42 39 100 59 173 59h175v-135h-175c-64 0 -89 -31 -89 -84v-112h249v-135h-249v-115c0 -53 25 -84 89 -84h175v-135h-175zM234 584
v-368c0 -67 26 -94 93 -94s93 27 93 94v368c0 68 -26 94 -93 94s-93 -26 -93 -94z" />
    <glyph glyph-name="lslash" unicode="&#x142;" horiz-adv-x="549" 
d="M529 135v-135h-192c-143 0 -242 83 -242 225v72l-85 -28v141l85 28v362h182v-301l145 48v-141l-145 -48v-149c0 -50 23 -74 80 -74h172z" />
    <glyph glyph-name="oslash" unicode="&#xf8;" 
d="M327 -13c-38 0 -71 3 -100 9l-31 -78h-134l52 132c-42 41 -62 101 -62 181v338c0 163 83 244 275 244c36 0 69 -3 97 -9l30 76h138l-52 -131c43 -41 62 -101 62 -180v-338c0 -163 -83 -244 -275 -244zM224 584v-289l149 378c-13 4 -28 5 -46 5c-74 0 -103 -26 -103 -94z
M430 216v297l-152 -385c14 -4 30 -6 49 -6c74 0 103 27 103 94z" />
    <glyph glyph-name="eth" unicode="&#xf0;" horiz-adv-x="689" 
d="M637 244c0 -164 -97 -244 -261 -244h-291v335h-75v135h75v330h291c164 0 261 -80 261 -244v-312zM267 135h109c57 0 79 26 79 94v342c0 68 -22 94 -79 94h-109v-195h91v-135h-91v-200z" />
    <glyph glyph-name="thorn" unicode="&#xfe;" horiz-adv-x="626" 
d="M340 143h-98v-143h-182v800h182v-130h98c185 0 256 -94 256 -212v-103c0 -118 -71 -212 -256 -212zM340 535h-98v-257h98c51 0 76 28 76 77v103c0 49 -25 77 -76 77z" />
    <glyph glyph-name="germandbls" unicode="&#xdf;" horiz-adv-x="690" 
d="M237 581v-581h-182v546c0 170 102 254 271 254h295l-104 -305c102 -30 143 -105 143 -193v-90c0 -118 -70 -212 -254 -212h-85v135h85c51 0 76 28 76 77v90c0 49 -25 77 -76 77h-85l105 286h-100c-64 0 -89 -31 -89 -84z" />
    <glyph glyph-name="dotlessi" unicode="&#x131;" horiz-adv-x="302" 
d="M60 0v800h182v-800h-182z" />
    <glyph glyph-name="dotlessj" unicode="&#x237;" horiz-adv-x="616" 
d="M379 800h182v-569c0 -163 -81 -244 -270 -244c-187 0 -266 81 -266 244v88h178v-113c0 -60 24 -84 88 -84c63 0 88 24 88 84v594z" />
    <glyph glyph-name="Aacute" unicode="&#xc1;" horiz-adv-x="656" 
d="M260 870l68 171h156l-90 -171h-134zM449 0l-29 206h-191l-29 -206h-175l95 624c20 129 82 189 206 189c125 0 190 -60 210 -189l95 -624h-182zM291 645l-42 -299h151l-42 299c-3 23 -14 31 -33 31c-20 0 -31 -8 -34 -31z" />
    <glyph glyph-name="Acircumflex" unicode="&#xc2;" horiz-adv-x="656" 
d="M373 870l-47 99l-46 -99h-121l76 171h186l76 -171h-124zM449 0l-29 206h-191l-29 -206h-175l95 624c20 129 82 189 206 189c125 0 190 -60 210 -189l95 -624h-182zM291 645l-42 -299h151l-42 299c-3 23 -14 31 -33 31c-20 0 -31 -8 -34 -31z" />
    <glyph glyph-name="Adieresis" unicode="&#xc4;" horiz-adv-x="656" 
d="M147 870v150h147v-150h-147zM362 870v150h147v-150h-147zM449 0l-29 206h-191l-29 -206h-175l95 624c20 129 82 189 206 189c125 0 190 -60 210 -189l95 -624h-182zM291 645l-42 -299h151l-42 299c-3 23 -14 31 -33 31c-20 0 -31 -8 -34 -31z" />
    <glyph glyph-name="Agrave" unicode="&#xc0;" horiz-adv-x="656" 
d="M327 1041l68 -171h-134l-90 171h156zM449 0l-29 206h-191l-29 -206h-175l95 624c20 129 82 189 206 189c125 0 190 -60 210 -189l95 -624h-182zM291 645l-42 -299h151l-42 299c-3 23 -14 31 -33 31c-20 0 -31 -8 -34 -31z" />
    <glyph glyph-name="Aring" unicode="&#xc5;" horiz-adv-x="656" 
d="M328 855c-86 0 -141 52 -141 132c0 79 55 132 141 132s141 -52 141 -132c0 -79 -55 -132 -141 -132zM328 1035c-29 0 -44 -16 -44 -48s15 -48 44 -48s44 16 44 48s-15 48 -44 48zM449 0l-29 206h-191l-29 -206h-175l95 624c20 129 82 189 206 189c125 0 190 -60 210 -189
l95 -624h-182zM291 645l-42 -299h151l-42 299c-3 23 -14 31 -33 31c-20 0 -31 -8 -34 -31z" />
    <glyph glyph-name="Atilde" unicode="&#xc3;" horiz-adv-x="656" 
d="M163 992c25 14 56 23 81 23c65 0 109 -30 168 -30c25 0 54 8 81 22v-116c-25 -14 -56 -23 -81 -23c-64 0 -108 30 -168 30c-25 0 -54 -8 -81 -22v116zM449 0l-29 206h-191l-29 -206h-175l95 624c20 129 82 189 206 189c125 0 190 -60 210 -189l95 -624h-182zM291 645
l-42 -299h151l-42 299c-3 23 -14 31 -33 31c-20 0 -31 -8 -34 -31z" />
    <glyph glyph-name="Abreve" unicode="&#x102;" horiz-adv-x="656" 
d="M279 1036v-34c0 -31 15 -42 49 -42s49 11 49 42v34h121v-31c0 -94 -63 -150 -170 -150s-170 56 -170 150v31h121zM449 0l-29 206h-191l-29 -206h-175l95 624c20 129 82 189 206 189c125 0 190 -60 210 -189l95 -624h-182zM291 645l-42 -299h151l-42 299
c-3 23 -14 31 -33 31c-20 0 -31 -8 -34 -31z" />
    <glyph glyph-name="Amacron" unicode="&#x100;" horiz-adv-x="656" 
d="M163 1002h330v-122h-330v122zM449 0l-29 206h-191l-29 -206h-175l95 624c20 129 82 189 206 189c125 0 190 -60 210 -189l95 -624h-182zM291 645l-42 -299h151l-42 299c-3 23 -14 31 -33 31c-20 0 -31 -8 -34 -31z" />
    <glyph glyph-name="Aogonek" unicode="&#x104;" horiz-adv-x="656" 
d="M450 -125c0 38 14 68 64 125h-65l-29 206h-191l-29 -206h-175l95 624c20 129 82 189 206 189c125 0 190 -60 210 -189l95 -624c-47 -67 -49 -74 -49 -85c0 -12 9 -18 24 -18h25v-120h-63c-70 0 -118 43 -118 98zM291 645l-42 -299h151l-42 299c-3 23 -14 31 -33 31
c-20 0 -31 -8 -34 -31z" />
    <glyph glyph-name="Ccedilla" unicode="&#xc7;" horiz-adv-x="631" 
d="M586 227c0 -138 -58 -216 -193 -235l-19 -172h-155l29 172c-138 19 -196 97 -196 235v346c0 161 80 240 269 240c187 0 265 -79 265 -240v-60h-178v77c0 66 -23 88 -87 88s-87 -22 -87 -88v-380c0 -65 23 -88 87 -88s87 23 87 88v102h178v-85z" />
    <glyph glyph-name="Cacute" unicode="&#x106;" horiz-adv-x="631" 
d="M249 870l68 171h156l-90 -171h-134zM586 513h-178v77c0 66 -23 88 -87 88s-87 -22 -87 -88v-380c0 -65 23 -88 87 -88s87 23 87 88v102h178v-85c0 -161 -79 -240 -265 -240c-190 0 -269 79 -269 240v346c0 161 80 240 269 240c187 0 265 -79 265 -240v-60z" />
    <glyph glyph-name="Ccaron" unicode="&#x10c;" horiz-adv-x="631" 
d="M485 1041l-76 -171h-186l-76 171h124l47 -99l46 99h121zM586 513h-178v77c0 66 -23 88 -87 88s-87 -22 -87 -88v-380c0 -65 23 -88 87 -88s87 23 87 88v102h178v-85c0 -161 -79 -240 -265 -240c-190 0 -269 79 -269 240v346c0 161 80 240 269 240c187 0 265 -79 265 -240
v-60z" />
    <glyph glyph-name="Ccircumflex" unicode="&#x108;" horiz-adv-x="631" 
d="M361 870l-47 99l-46 -99h-121l76 171h186l76 -171h-124zM586 513h-178v77c0 66 -23 88 -87 88s-87 -22 -87 -88v-380c0 -65 23 -88 87 -88s87 23 87 88v102h178v-85c0 -161 -79 -240 -265 -240c-190 0 -269 79 -269 240v346c0 161 80 240 269 240c187 0 265 -79 265 -240
v-60z" />
    <glyph glyph-name="Cdotaccent" unicode="&#x10a;" horiz-adv-x="631" 
d="M249 870v130h134v-130h-134zM586 513h-178v77c0 66 -23 88 -87 88s-87 -22 -87 -88v-380c0 -65 23 -88 87 -88s87 23 87 88v102h178v-85c0 -161 -79 -240 -265 -240c-190 0 -269 79 -269 240v346c0 161 80 240 269 240c187 0 265 -79 265 -240v-60z" />
    <glyph glyph-name="Dcaron" unicode="&#x10e;" horiz-adv-x="664" 
d="M501 1041l-76 -171h-186l-76 171h124l47 -99l46 99h121zM351 0h-291v800h291c164 0 261 -80 261 -244v-312c0 -164 -97 -244 -261 -244zM351 665h-109v-530h109c57 0 79 26 79 94v342c0 68 -22 94 -79 94z" />
    <glyph glyph-name="Dcroat" unicode="&#x110;" horiz-adv-x="689" 
d="M637 244c0 -164 -97 -244 -261 -244h-291v335h-75v135h75v330h291c164 0 261 -80 261 -244v-312zM267 135h109c57 0 79 26 79 94v342c0 68 -22 94 -79 94h-109v-195h91v-135h-91v-200z" />
    <glyph glyph-name="Eacute" unicode="&#xc9;" horiz-adv-x="540" 
d="M234 870l68 171h156l-90 -171h-134zM498 135v-135h-175c-169 0 -271 84 -271 254v292c0 170 102 254 271 254h175v-135h-175c-64 0 -89 -31 -89 -84v-112h249v-135h-249v-115c0 -53 25 -84 89 -84h175z" />
    <glyph glyph-name="Ecircumflex" unicode="&#xca;" horiz-adv-x="540" 
d="M346 870l-47 99l-46 -99h-121l76 171h186l76 -171h-124zM498 135v-135h-175c-169 0 -271 84 -271 254v292c0 170 102 254 271 254h175v-135h-175c-64 0 -89 -31 -89 -84v-112h249v-135h-249v-115c0 -53 25 -84 89 -84h175z" />
    <glyph glyph-name="Edieresis" unicode="&#xcb;" horiz-adv-x="540" 
d="M90 870v150h147v-150h-147zM305 870v150h147v-150h-147zM498 135v-135h-175c-169 0 -271 84 -271 254v292c0 170 102 254 271 254h175v-135h-175c-64 0 -89 -31 -89 -84v-112h249v-135h-249v-115c0 -53 25 -84 89 -84h175z" />
    <glyph glyph-name="Egrave" unicode="&#xc8;" horiz-adv-x="540" 
d="M300 1041l68 -171h-134l-90 171h156zM498 135v-135h-175c-169 0 -271 84 -271 254v292c0 170 102 254 271 254h175v-135h-175c-64 0 -89 -31 -89 -84v-112h249v-135h-249v-115c0 -53 25 -84 89 -84h175z" />
    <glyph glyph-name="Ebreve" unicode="&#x114;" horiz-adv-x="540" 
d="M242 1036v-34c0 -31 15 -42 49 -42s49 11 49 42v34h121v-31c0 -94 -63 -150 -170 -150s-170 56 -170 150v31h121zM498 135v-135h-175c-169 0 -271 84 -271 254v292c0 170 102 254 271 254h175v-135h-175c-64 0 -89 -31 -89 -84v-112h249v-135h-249v-115
c0 -53 25 -84 89 -84h175z" />
    <glyph glyph-name="Ecaron" unicode="&#x11a;" horiz-adv-x="540" 
d="M470 1041l-76 -171h-186l-76 171h124l47 -99l46 99h121zM498 135v-135h-175c-169 0 -271 84 -271 254v292c0 170 102 254 271 254h175v-135h-175c-64 0 -89 -31 -89 -84v-112h249v-135h-249v-115c0 -53 25 -84 89 -84h175z" />
    <glyph glyph-name="Edotaccent" unicode="&#x116;" horiz-adv-x="540" 
d="M220 870v130h134v-130h-134zM498 135v-135h-175c-169 0 -271 84 -271 254v292c0 170 102 254 271 254h175v-135h-175c-64 0 -89 -31 -89 -84v-112h249v-135h-249v-115c0 -53 25 -84 89 -84h175z" />
    <glyph glyph-name="Emacron" unicode="&#x112;" horiz-adv-x="540" 
d="M121 1002h330v-122h-330v122zM498 135v-135h-175c-169 0 -271 84 -271 254v292c0 170 102 254 271 254h175v-135h-175c-64 0 -89 -31 -89 -84v-112h249v-135h-249v-115c0 -53 25 -84 89 -84h175z" />
    <glyph glyph-name="Eogonek" unicode="&#x118;" horiz-adv-x="540" 
d="M317 -125c0 38 14 68 64 125h-58c-169 0 -271 84 -271 254v292c0 170 102 254 271 254h175v-135h-175c-64 0 -89 -31 -89 -84v-112h249v-135h-249v-115c0 -53 25 -84 89 -84h175v-135c-47 -67 -49 -74 -49 -85c0 -12 9 -18 24 -18h25v-120h-63c-70 0 -118 43 -118 98z
" />
    <glyph glyph-name="Gbreve" unicode="&#x11e;" horiz-adv-x="650" 
d="M277 1036v-34c0 -31 15 -42 49 -42s49 11 49 42v34h121v-31c0 -94 -63 -150 -170 -150s-170 56 -170 150v31h121zM328 419h270v-419h-160v83h-5c-27 -64 -84 -96 -166 -96c-143 0 -215 80 -215 244v338c0 154 74 244 275 244c199 0 271 -90 271 -244v-20h-178v41
c0 64 -27 88 -93 88s-93 -24 -93 -88v-380c0 -63 27 -88 96 -88c64 0 96 25 96 88v77h-98v132z" />
    <glyph glyph-name="Gcircumflex" unicode="&#x11c;" horiz-adv-x="650" 
d="M371 870l-47 99l-46 -99h-121l76 171h186l76 -171h-124zM328 419h270v-419h-160v83h-5c-27 -64 -84 -96 -166 -96c-143 0 -215 80 -215 244v338c0 154 74 244 275 244c199 0 271 -90 271 -244v-20h-178v41c0 64 -27 88 -93 88s-93 -24 -93 -88v-380c0 -63 27 -88 96 -88
c64 0 96 25 96 88v77h-98v132z" />
    <glyph glyph-name="Gcommaaccent" unicode="&#x122;" horiz-adv-x="650" 
d="M328 419h270v-419h-160v83h-5c-27 -64 -84 -96 -166 -96c-143 0 -215 80 -215 244v338c0 154 74 244 275 244c199 0 271 -90 271 -244v-20h-178v41c0 64 -27 88 -93 88s-93 -24 -93 -88v-380c0 -63 27 -88 96 -88c64 0 96 25 96 88v77h-98v132zM393 -159
c0 -37 -11 -67 -45 -121h-87c37 58 47 77 49 100h-51v110h134v-89z" />
    <glyph glyph-name="Gdotaccent" unicode="&#x120;" horiz-adv-x="650" 
d="M259 870v130h134v-130h-134zM328 419h270v-419h-160v83h-5c-27 -64 -84 -96 -166 -96c-143 0 -215 80 -215 244v338c0 154 74 244 275 244c199 0 271 -90 271 -244v-20h-178v41c0 64 -27 88 -93 88s-93 -24 -93 -88v-380c0 -63 27 -88 96 -88c64 0 96 25 96 88v77h-98
v132z" />
    <glyph glyph-name="Hbar" unicode="&#x126;" horiz-adv-x="730" 
d="M463 0v334h-196v-334h-182v579h-75v120h75v101h182v-101h196v101h182v-101h75v-120h-75v-579h-182zM267 477h196v102h-196v-102z" />
    <glyph glyph-name="Hcircumflex" unicode="&#x124;" horiz-adv-x="680" 
d="M385 870l-47 99l-46 -99h-121l76 171h186l76 -171h-124zM438 0v334h-196v-334h-182v800h182v-323h196v323h182v-800h-182z" />
    <glyph glyph-name="Iacute" unicode="&#xcd;" horiz-adv-x="302" 
d="M84 870l68 171h156l-90 -171h-134zM60 0v800h182v-800h-182z" />
    <glyph glyph-name="Icircumflex" unicode="&#xce;" horiz-adv-x="302" 
d="M196 870l-47 99l-46 -99h-121l76 171h186l76 -171h-124zM60 0v800h182v-800h-182z" />
    <glyph glyph-name="Idieresis" unicode="&#xcf;" horiz-adv-x="302" 
d="M-30 870v150h147v-150h-147zM185 870v150h147v-150h-147zM60 0v800h182v-800h-182z" />
    <glyph glyph-name="Igrave" unicode="&#xcc;" horiz-adv-x="302" 
d="M150 1041l68 -171h-134l-90 171h156zM60 0v800h182v-800h-182z" />
    <glyph glyph-name="Ibreve" unicode="&#x12c;" horiz-adv-x="302" 
d="M102 1036v-34c0 -31 15 -42 49 -42s49 11 49 42v34h121v-31c0 -94 -63 -150 -170 -150s-170 56 -170 150v31h121zM60 0v800h182v-800h-182z" />
    <glyph glyph-name="Idotaccent" unicode="&#x130;" horiz-adv-x="302" 
d="M84 870v130h134v-130h-134zM60 0v800h182v-800h-182z" />
    <glyph glyph-name="Imacron" unicode="&#x12a;" horiz-adv-x="302" 
d="M-14 1002h330v-122h-330v122zM60 0v800h182v-800h-182z" />
    <glyph glyph-name="Iogonek" unicode="&#x12e;" horiz-adv-x="302" 
d="M61 -125c0 38 14 68 64 125h-65v800h182v-800c-47 -67 -49 -74 -49 -85c0 -12 9 -18 24 -18h25v-120h-63c-70 0 -118 43 -118 98z" />
    <glyph glyph-name="Itilde" unicode="&#x128;" horiz-adv-x="302" 
d="M-14 992c25 14 56 23 81 23c65 0 109 -30 168 -30c25 0 54 8 81 22v-116c-25 -14 -56 -23 -81 -23c-64 0 -108 30 -168 30c-25 0 -54 -8 -81 -22v116zM60 0v800h182v-800h-182z" />
    <glyph glyph-name="Jcircumflex" unicode="&#x134;" horiz-adv-x="616" 
d="M515 870l-47 99l-46 -99h-121l76 171h186l76 -171h-124zM379 800h182v-569c0 -163 -81 -244 -270 -244c-187 0 -266 81 -266 244v88h178v-113c0 -60 24 -84 88 -84c63 0 88 24 88 84v594z" />
    <glyph glyph-name="IJ" unicode="&#x132;" horiz-adv-x="628" 
d="M293 0h-138v135h128c77 0 108 28 108 99v566h182v-556c0 -153 -95 -244 -280 -244zM242 235h-182v565h182v-565z" />
    <glyph glyph-name="Kcommaaccent" unicode="&#x136;" horiz-adv-x="671" 
d="M351 332h-109v-332h-182v800h182v-333h5l204 333h182l-205 -338c133 -19 194 -101 194 -224v-238h-182v238c0 59 -25 94 -89 94zM403 -159c0 -37 -11 -67 -45 -121h-87c36 58 46 77 49 100h-51v110h134v-89z" />
    <glyph glyph-name="Lacute" unicode="&#x139;" horiz-adv-x="509" 
d="M92 870l68 171h156l-90 -171h-134zM237 800v-591c0 -50 23 -74 80 -74h172v-135h-192c-143 0 -242 83 -242 225v575h182z" />
    <glyph glyph-name="Lcaron" unicode="&#x13d;" horiz-adv-x="509" 
d="M237 800v-591c0 -50 23 -74 80 -74h172v-135h-192c-143 0 -242 83 -242 225v575h182zM334 570l23 230h137l-30 -230h-130z" />
    <glyph glyph-name="Lcommaaccent" unicode="&#x13b;" horiz-adv-x="509" 
d="M237 800v-591c0 -50 23 -74 80 -74h172v-135h-192c-143 0 -242 83 -242 225v575h182zM355 -159c0 -37 -11 -67 -45 -121h-87c37 58 47 77 49 100h-51v110h134v-89z" />
    <glyph glyph-name="Ldot" unicode="&#x13f;" horiz-adv-x="509" 
d="M237 800v-591c0 -50 23 -74 80 -74h172v-135h-192c-143 0 -242 83 -242 225v575h182zM336 360v130h134v-130h-134z" />
    <glyph glyph-name="Ntilde" unicode="&#xd1;" horiz-adv-x="672" 
d="M171 992c25 14 56 23 81 23c65 0 109 -30 168 -30c25 0 54 8 81 22v-116c-25 -14 -56 -23 -81 -23c-64 0 -108 30 -168 30c-25 0 -54 -8 -81 -22v116zM237 0h-182v569c0 164 83 244 281 244s281 -80 281 -244v-569h-182v584c0 69 -28 94 -99 94s-99 -25 -99 -94v-584z
" />
    <glyph glyph-name="Nacute" unicode="&#x143;" horiz-adv-x="672" 
d="M269 870l68 171h156l-90 -171h-134zM237 0h-182v569c0 164 83 244 281 244s281 -80 281 -244v-569h-182v584c0 69 -28 94 -99 94s-99 -25 -99 -94v-584z" />
    <glyph glyph-name="Ncaron" unicode="&#x147;" horiz-adv-x="672" 
d="M505 1041l-76 -171h-186l-76 171h124l47 -99l46 99h121zM237 0h-182v569c0 164 83 244 281 244s281 -80 281 -244v-569h-182v584c0 69 -28 94 -99 94s-99 -25 -99 -94v-584z" />
    <glyph glyph-name="Ncommaaccent" unicode="&#x145;" horiz-adv-x="672" 
d="M237 0h-182v569c0 164 83 244 281 244s281 -80 281 -244v-569h-182v584c0 69 -28 94 -99 94s-99 -25 -99 -94v-584zM403 -159c0 -37 -11 -67 -45 -121h-87c37 58 47 77 49 100h-51v110h134v-89z" />
    <glyph glyph-name="Oacute" unicode="&#xd3;" 
d="M260 870l68 171h156l-90 -171h-134zM52 569c0 163 83 244 275 244c193 0 275 -81 275 -244v-338c0 -163 -83 -244 -275 -244c-193 0 -275 81 -275 244v338zM234 585v-370c0 -67 26 -94 93 -94s93 27 93 94v370c0 68 -26 94 -93 94s-93 -26 -93 -94z" />
    <glyph glyph-name="Ocircumflex" unicode="&#xd4;" 
d="M372 870l-47 99l-46 -99h-121l76 171h186l76 -171h-124zM52 569c0 163 83 244 275 244c193 0 275 -81 275 -244v-338c0 -163 -83 -244 -275 -244c-193 0 -275 81 -275 244v338zM234 585v-370c0 -67 26 -94 93 -94s93 27 93 94v370c0 68 -26 94 -93 94s-93 -26 -93 -94z
" />
    <glyph glyph-name="Odieresis" unicode="&#xd6;" 
d="M146 870v150h147v-150h-147zM361 870v150h147v-150h-147zM52 569c0 163 83 244 275 244c193 0 275 -81 275 -244v-338c0 -163 -83 -244 -275 -244c-193 0 -275 81 -275 244v338zM234 585v-370c0 -67 26 -94 93 -94s93 27 93 94v370c0 68 -26 94 -93 94s-93 -26 -93 -94z
" />
    <glyph glyph-name="Ograve" unicode="&#xd2;" 
d="M326 1041l68 -171h-134l-90 171h156zM52 569c0 163 83 244 275 244c193 0 275 -81 275 -244v-338c0 -163 -83 -244 -275 -244c-193 0 -275 81 -275 244v338zM234 585v-370c0 -67 26 -94 93 -94s93 27 93 94v370c0 68 -26 94 -93 94s-93 -26 -93 -94z" />
    <glyph glyph-name="Otilde" unicode="&#xd5;" 
d="M162 992c25 14 56 23 81 23c65 0 109 -30 168 -30c25 0 54 8 81 22v-116c-25 -14 -56 -23 -81 -23c-64 0 -108 30 -168 30c-25 0 -54 -8 -81 -22v116zM52 569c0 163 83 244 275 244c193 0 275 -81 275 -244v-338c0 -163 -83 -244 -275 -244c-193 0 -275 81 -275 244v338z
M234 585v-370c0 -67 26 -94 93 -94s93 27 93 94v370c0 68 -26 94 -93 94s-93 -26 -93 -94z" />
    <glyph glyph-name="Obreve" unicode="&#x14e;" 
d="M278 1036v-34c0 -31 15 -42 49 -42s49 11 49 42v34h121v-31c0 -94 -63 -150 -170 -150s-170 56 -170 150v31h121zM52 569c0 163 83 244 275 244c193 0 275 -81 275 -244v-338c0 -163 -83 -244 -275 -244c-193 0 -275 81 -275 244v338zM234 585v-370c0 -67 26 -94 93 -94
s93 27 93 94v370c0 68 -26 94 -93 94s-93 -26 -93 -94z" />
    <glyph glyph-name="Ohungarumlaut" unicode="&#x150;" 
d="M360 870l71 181h138l-68 -181h-141zM163 870l66 181h138l-63 -181h-141zM52 569c0 163 83 244 275 244c193 0 275 -81 275 -244v-338c0 -163 -83 -244 -275 -244c-193 0 -275 81 -275 244v338zM234 585v-370c0 -67 26 -94 93 -94s93 27 93 94v370c0 68 -26 94 -93 94
s-93 -26 -93 -94z" />
    <glyph glyph-name="Omacron" unicode="&#x14c;" 
d="M162 1002h330v-122h-330v122zM52 569c0 163 83 244 275 244c193 0 275 -81 275 -244v-338c0 -163 -83 -244 -275 -244c-193 0 -275 81 -275 244v338zM234 585v-370c0 -67 26 -94 93 -94s93 27 93 94v370c0 68 -26 94 -93 94s-93 -26 -93 -94z" />
    <glyph glyph-name="Racute" unicode="&#x154;" 
d="M260 870l68 171h156l-90 -171h-134zM60 0v800h335c130 0 202 -77 202 -174v-44c0 -74 -43 -134 -129 -155v-6c92 -23 141 -95 141 -189v-232h-175v232c0 48 -22 72 -76 72h-116v-304h-182zM355 665h-113v-227h113c40 0 67 20 67 62v103c0 42 -27 62 -67 62z" />
    <glyph glyph-name="Rcaron" unicode="&#x158;" 
d="M496 1041l-76 -171h-186l-76 171h124l47 -99l46 99h121zM60 0v800h335c130 0 202 -77 202 -174v-44c0 -74 -43 -134 -129 -155v-6c92 -23 141 -95 141 -189v-232h-175v232c0 48 -22 72 -76 72h-116v-304h-182zM355 665h-113v-227h113c40 0 67 20 67 62v103
c0 42 -27 62 -67 62z" />
    <glyph glyph-name="Rcommaaccent" unicode="&#x156;" 
d="M60 0v800h335c130 0 202 -77 202 -174v-44c0 -74 -43 -134 -129 -155v-6c92 -23 141 -95 141 -189v-232h-175v232c0 48 -22 72 -76 72h-116v-304h-182zM355 665h-113v-227h113c40 0 67 20 67 62v103c0 42 -27 62 -67 62zM404 -159c0 -37 -11 -67 -45 -121h-87
c37 58 47 77 49 100h-51v110h134v-89z" />
    <glyph glyph-name="Scaron" unicode="&#x160;" horiz-adv-x="611" 
d="M474 1041l-76 -171h-186l-76 171h124l47 -99l46 99h121zM223 599v-25c0 -40 13 -59 63 -77l83 -30c152 -55 202 -111 202 -241v-25c0 -129 -80 -214 -265 -214s-264 76 -264 225v30h178v-41c0 -58 24 -80 86 -80s86 22 86 80v25c0 46 -15 67 -87 91l-77 26
c-139 47 -184 102 -184 227v29c0 135 80 214 263 214s262 -79 262 -234v-20h-178v40c0 57 -24 80 -84 80s-84 -23 -84 -80z" />
    <glyph glyph-name="Sacute" unicode="&#x15a;" horiz-adv-x="611" 
d="M238 870l68 171h156l-90 -171h-134zM223 599v-25c0 -40 13 -59 63 -77l83 -30c152 -55 202 -111 202 -241v-25c0 -129 -80 -214 -265 -214s-264 76 -264 225v30h178v-41c0 -58 24 -80 86 -80s86 22 86 80v25c0 46 -15 67 -87 91l-77 26c-139 47 -184 102 -184 227v29
c0 135 80 214 263 214s262 -79 262 -234v-20h-178v40c0 57 -24 80 -84 80s-84 -23 -84 -80z" />
    <glyph glyph-name="Scedilla" unicode="&#x15e;" horiz-adv-x="611" 
d="M571 201c0 -109 -58 -187 -188 -208l-19 -173h-155l29 171c-137 18 -196 92 -196 221v30h178v-41c0 -58 24 -80 86 -80s86 22 86 80v25c0 46 -15 67 -87 91l-77 26c-139 47 -184 102 -184 227v29c0 135 80 214 263 214s262 -79 262 -234v-20h-178v40c0 57 -24 80 -84 80
s-84 -23 -84 -80v-25c0 -40 13 -59 63 -77l83 -30c152 -55 202 -111 202 -241v-25z" />
    <glyph glyph-name="Scircumflex" unicode="&#x15c;" horiz-adv-x="611" 
d="M350 870l-47 99l-46 -99h-121l76 171h186l76 -171h-124zM223 599v-25c0 -40 13 -59 63 -77l83 -30c152 -55 202 -111 202 -241v-25c0 -129 -80 -214 -265 -214s-264 76 -264 225v30h178v-41c0 -58 24 -80 86 -80s86 22 86 80v25c0 46 -15 67 -87 91l-77 26
c-139 47 -184 102 -184 227v29c0 135 80 214 263 214s262 -79 262 -234v-20h-178v40c0 57 -24 80 -84 80s-84 -23 -84 -80z" />
    <glyph glyph-name="uni0218" unicode="&#x218;" horiz-adv-x="611" 
d="M223 599v-25c0 -40 13 -59 63 -77l83 -30c152 -55 202 -111 202 -241v-25c0 -129 -80 -214 -265 -214s-264 76 -264 225v30h178v-41c0 -58 24 -80 86 -80s86 22 86 80v25c0 46 -15 67 -87 91l-77 26c-139 47 -184 102 -184 227v29c0 135 80 214 263 214s262 -79 262 -234
v-20h-178v40c0 57 -24 80 -84 80s-84 -23 -84 -80zM372 -159c0 -37 -11 -67 -45 -121h-87c37 58 47 77 49 100h-51v110h134v-89z" />
    <glyph glyph-name="Tbar" unicode="&#x166;" horiz-adv-x="578" 
d="M513 329h-133v-329h-182v329h-133v131h133v205h-183v135h548v-135h-183v-205h133v-131z" />
    <glyph glyph-name="Tcaron" unicode="&#x164;" horiz-adv-x="578" 
d="M458 1041l-76 -171h-186l-76 171h124l47 -99l46 99h121zM563 665h-183v-665h-182v665h-183v135h548v-135z" />
    <glyph glyph-name="uni0162" unicode="&#x162;" horiz-adv-x="578" 
d="M563 665h-183v-665h-182v665h-183v135h548v-135zM356 -159c0 -37 -11 -67 -45 -121h-87c37 58 47 77 49 100h-51v110h134v-89z" />
    <glyph glyph-name="uni021A" unicode="&#x21a;" horiz-adv-x="578" 
d="M563 665h-183v-665h-182v665h-183v135h548v-135zM356 -159c0 -37 -11 -67 -45 -121h-87c37 58 47 77 49 100h-51v110h134v-89z" />
    <glyph glyph-name="Uacute" unicode="&#xda;" horiz-adv-x="662" 
d="M264 870l68 171h156l-90 -171h-134zM425 800h182v-569c0 -164 -78 -244 -276 -244s-276 80 -276 244v569h182v-584c0 -69 23 -94 94 -94s94 25 94 94v584z" />
    <glyph glyph-name="Ucircumflex" unicode="&#xdb;" horiz-adv-x="662" 
d="M376 870l-47 99l-46 -99h-121l76 171h186l76 -171h-124zM425 800h182v-569c0 -164 -78 -244 -276 -244s-276 80 -276 244v569h182v-584c0 -69 23 -94 94 -94s94 25 94 94v584z" />
    <glyph glyph-name="Udieresis" unicode="&#xdc;" horiz-adv-x="662" 
d="M150 870v150h147v-150h-147zM365 870v150h147v-150h-147zM425 800h182v-569c0 -164 -78 -244 -276 -244s-276 80 -276 244v569h182v-584c0 -69 23 -94 94 -94s94 25 94 94v584z" />
    <glyph glyph-name="Ugrave" unicode="&#xd9;" horiz-adv-x="662" 
d="M330 1041l68 -171h-134l-90 171h156zM425 800h182v-569c0 -164 -78 -244 -276 -244s-276 80 -276 244v569h182v-584c0 -69 23 -94 94 -94s94 25 94 94v584z" />
    <glyph glyph-name="Ubreve" unicode="&#x16c;" horiz-adv-x="662" 
d="M282 1036v-34c0 -31 15 -42 49 -42s49 11 49 42v34h121v-31c0 -94 -63 -150 -170 -150s-170 56 -170 150v31h121zM425 800h182v-569c0 -164 -78 -244 -276 -244s-276 80 -276 244v569h182v-584c0 -69 23 -94 94 -94s94 25 94 94v584z" />
    <glyph glyph-name="Uhungarumlaut" unicode="&#x170;" horiz-adv-x="662" 
d="M364 870l71 181h138l-68 -181h-141zM167 870l66 181h138l-63 -181h-141zM425 800h182v-569c0 -164 -78 -244 -276 -244s-276 80 -276 244v569h182v-584c0 -69 23 -94 94 -94s94 25 94 94v584z" />
    <glyph glyph-name="Umacron" unicode="&#x16a;" horiz-adv-x="662" 
d="M166 1002h330v-122h-330v122zM425 800h182v-569c0 -164 -78 -244 -276 -244s-276 80 -276 244v569h182v-584c0 -69 23 -94 94 -94s94 25 94 94v584z" />
    <glyph glyph-name="Uogonek" unicode="&#x172;" horiz-adv-x="658" 
d="M404 -103v-120h-63c-70 0 -118 43 -118 98c0 36 12 64 55 114c-159 14 -223 94 -223 242v569h182v-584c0 -69 23 -94 94 -94s94 25 94 94v584h182v-569c0 -144 -60 -224 -210 -241c-40 -58 -42 -65 -42 -75c0 -12 9 -18 24 -18h25z" />
    <glyph glyph-name="Uring" unicode="&#x16e;" horiz-adv-x="662" 
d="M331 855c-86 0 -141 52 -141 132c0 79 55 132 141 132s141 -52 141 -132c0 -79 -55 -132 -141 -132zM331 1035c-29 0 -44 -16 -44 -48s15 -48 44 -48s44 16 44 48s-15 48 -44 48zM425 800h182v-569c0 -164 -78 -244 -276 -244s-276 80 -276 244v569h182v-584
c0 -69 23 -94 94 -94s94 25 94 94v584z" />
    <glyph glyph-name="Utilde" unicode="&#x168;" horiz-adv-x="662" 
d="M166 992c25 14 56 23 81 23c65 0 109 -30 168 -30c25 0 54 8 81 22v-116c-25 -14 -56 -23 -81 -23c-64 0 -108 30 -168 30c-25 0 -54 -8 -81 -22v116zM425 800h182v-569c0 -164 -78 -244 -276 -244s-276 80 -276 244v569h182v-584c0 -69 23 -94 94 -94s94 25 94 94v584z
" />
    <glyph glyph-name="Wacute" unicode="&#x1e82;" horiz-adv-x="964" 
d="M415 870l68 171h156l-90 -171h-134zM909 218c0 -146 -74 -231 -242 -231c-73 0 -142 22 -185 71c-43 -49 -112 -71 -185 -71c-168 0 -242 85 -242 231v582h182v-592c0 -57 22 -79 77 -79s77 22 77 79v592h182v-592c0 -57 22 -79 77 -79s77 22 77 79v592h182v-582z" />
    <glyph glyph-name="Wcircumflex" unicode="&#x174;" horiz-adv-x="964" 
d="M527 870l-47 99l-46 -99h-121l76 171h186l76 -171h-124zM909 218c0 -146 -74 -231 -242 -231c-73 0 -142 22 -185 71c-43 -49 -112 -71 -185 -71c-168 0 -242 85 -242 231v582h182v-592c0 -57 22 -79 77 -79s77 22 77 79v592h182v-592c0 -57 22 -79 77 -79s77 22 77 79
v592h182v-582z" />
    <glyph glyph-name="Wdieresis" unicode="&#x1e84;" horiz-adv-x="964" 
d="M301 870v150h147v-150h-147zM516 870v150h147v-150h-147zM909 218c0 -146 -74 -231 -242 -231c-73 0 -142 22 -185 71c-43 -49 -112 -71 -185 -71c-168 0 -242 85 -242 231v582h182v-592c0 -57 22 -79 77 -79s77 22 77 79v592h182v-592c0 -57 22 -79 77 -79s77 22 77 79
v592h182v-582z" />
    <glyph glyph-name="Wgrave" unicode="&#x1e80;" horiz-adv-x="964" 
d="M481 1041l68 -171h-134l-90 171h156zM909 218c0 -146 -74 -231 -242 -231c-73 0 -142 22 -185 71c-43 -49 -112 -71 -185 -71c-168 0 -242 85 -242 231v582h182v-592c0 -57 22 -79 77 -79s77 22 77 79v592h182v-592c0 -57 22 -79 77 -79s77 22 77 79v592h182v-582z" />
    <glyph glyph-name="Yacute" unicode="&#xdd;" horiz-adv-x="642" 
d="M254 870l68 171h156l-90 -171h-134zM597 559c0 -126 -57 -209 -185 -234v-325h-182v325c-129 25 -185 108 -185 234v241h180v-256c0 -66 26 -92 96 -92s96 26 96 92v256h180v-241z" />
    <glyph glyph-name="Ydieresis" unicode="&#x178;" horiz-adv-x="642" 
d="M140 870v150h147v-150h-147zM355 870v150h147v-150h-147zM597 559c0 -126 -57 -209 -185 -234v-325h-182v325c-129 25 -185 108 -185 234v241h180v-256c0 -66 26 -92 96 -92s96 26 96 92v256h180v-241z" />
    <glyph glyph-name="Ycircumflex" unicode="&#x176;" horiz-adv-x="642" 
d="M366 870l-47 99l-46 -99h-121l76 171h186l76 -171h-124zM597 559c0 -126 -57 -209 -185 -234v-325h-182v325c-129 25 -185 108 -185 234v241h180v-256c0 -66 26 -92 96 -92s96 26 96 92v256h180v-241z" />
    <glyph glyph-name="Ygrave" unicode="&#x1ef2;" horiz-adv-x="642" 
d="M320 1041l68 -171h-134l-90 171h156zM597 559c0 -126 -57 -209 -185 -234v-325h-182v325c-129 25 -185 108 -185 234v241h180v-256c0 -66 26 -92 96 -92s96 26 96 92v256h180v-241z" />
    <glyph glyph-name="Zcaron" unicode="&#x17d;" horiz-adv-x="556" 
d="M447 1041l-76 -171h-186l-76 171h124l47 -99l46 99h121zM259 135h248v-135h-265c-141 0 -212 80 -212 177c0 52 21 102 69 155l230 252c16 17 20 31 20 44c0 23 -14 37 -49 37h-251v135h265c141 0 212 -77 212 -171c0 -54 -17 -100 -70 -160l-226 -253
c-15 -17 -20 -31 -20 -44c0 -23 14 -37 49 -37z" />
    <glyph glyph-name="Zacute" unicode="&#x179;" horiz-adv-x="556" 
d="M211 870l68 171h156l-90 -171h-134zM259 135h248v-135h-265c-141 0 -212 80 -212 177c0 52 21 102 69 155l230 252c16 17 20 31 20 44c0 23 -14 37 -49 37h-251v135h265c141 0 212 -77 212 -171c0 -54 -17 -100 -70 -160l-226 -253c-15 -17 -20 -31 -20 -44
c0 -23 14 -37 49 -37z" />
    <glyph glyph-name="Zdotaccent" unicode="&#x17b;" horiz-adv-x="556" 
d="M211 870v130h134v-130h-134zM259 135h248v-135h-265c-141 0 -212 80 -212 177c0 52 21 102 69 155l230 252c16 17 20 31 20 44c0 23 -14 37 -49 37h-251v135h265c141 0 212 -77 212 -171c0 -54 -17 -100 -70 -160l-226 -253c-15 -17 -20 -31 -20 -44c0 -23 14 -37 49 -37
z" />
    <glyph glyph-name="aacute" unicode="&#xe1;" horiz-adv-x="656" 
d="M260 870l68 171h156l-90 -171h-134zM449 0l-29 206h-191l-29 -206h-175l95 624c20 129 82 189 206 189c125 0 190 -60 210 -189l95 -624h-182zM291 645l-42 -299h151l-42 299c-3 23 -14 31 -33 31c-20 0 -31 -8 -34 -31z" />
    <glyph glyph-name="acircumflex" unicode="&#xe2;" horiz-adv-x="656" 
d="M373 870l-47 99l-46 -99h-121l76 171h186l76 -171h-124zM449 0l-29 206h-191l-29 -206h-175l95 624c20 129 82 189 206 189c125 0 190 -60 210 -189l95 -624h-182zM291 645l-42 -299h151l-42 299c-3 23 -14 31 -33 31c-20 0 -31 -8 -34 -31z" />
    <glyph glyph-name="adieresis" unicode="&#xe4;" horiz-adv-x="656" 
d="M147 870v150h147v-150h-147zM362 870v150h147v-150h-147zM449 0l-29 206h-191l-29 -206h-175l95 624c20 129 82 189 206 189c125 0 190 -60 210 -189l95 -624h-182zM291 645l-42 -299h151l-42 299c-3 23 -14 31 -33 31c-20 0 -31 -8 -34 -31z" />
    <glyph glyph-name="agrave" unicode="&#xe0;" horiz-adv-x="656" 
d="M327 1041l68 -171h-134l-90 171h156zM449 0l-29 206h-191l-29 -206h-175l95 624c20 129 82 189 206 189c125 0 190 -60 210 -189l95 -624h-182zM291 645l-42 -299h151l-42 299c-3 23 -14 31 -33 31c-20 0 -31 -8 -34 -31z" />
    <glyph glyph-name="aring" unicode="&#xe5;" horiz-adv-x="656" 
d="M328 855c-86 0 -141 52 -141 132c0 79 55 132 141 132s141 -52 141 -132c0 -79 -55 -132 -141 -132zM328 1035c-29 0 -44 -16 -44 -48s15 -48 44 -48s44 16 44 48s-15 48 -44 48zM449 0l-29 206h-191l-29 -206h-175l95 624c20 129 82 189 206 189c125 0 190 -60 210 -189
l95 -624h-182zM291 645l-42 -299h151l-42 299c-3 23 -14 31 -33 31c-20 0 -31 -8 -34 -31z" />
    <glyph glyph-name="atilde" unicode="&#xe3;" horiz-adv-x="656" 
d="M163 992c25 14 56 23 81 23c65 0 109 -30 168 -30c25 0 54 8 81 22v-116c-25 -14 -56 -23 -81 -23c-64 0 -108 30 -168 30c-25 0 -54 -8 -81 -22v116zM449 0l-29 206h-191l-29 -206h-175l95 624c20 129 82 189 206 189c125 0 190 -60 210 -189l95 -624h-182zM291 645
l-42 -299h151l-42 299c-3 23 -14 31 -33 31c-20 0 -31 -8 -34 -31z" />
    <glyph glyph-name="abreve" unicode="&#x103;" horiz-adv-x="656" 
d="M279 1036v-34c0 -31 15 -42 49 -42s49 11 49 42v34h121v-31c0 -94 -63 -150 -170 -150s-170 56 -170 150v31h121zM449 0l-29 206h-191l-29 -206h-175l95 624c20 129 82 189 206 189c125 0 190 -60 210 -189l95 -624h-182zM291 645l-42 -299h151l-42 299
c-3 23 -14 31 -33 31c-20 0 -31 -8 -34 -31z" />
    <glyph glyph-name="amacron" unicode="&#x101;" horiz-adv-x="656" 
d="M163 1002h330v-122h-330v122zM449 0l-29 206h-191l-29 -206h-175l95 624c20 129 82 189 206 189c125 0 190 -60 210 -189l95 -624h-182zM291 645l-42 -299h151l-42 299c-3 23 -14 31 -33 31c-20 0 -31 -8 -34 -31z" />
    <glyph glyph-name="aogonek" unicode="&#x105;" horiz-adv-x="656" 
d="M450 -125c0 38 14 68 64 125h-65l-29 206h-191l-29 -206h-175l95 624c20 129 82 189 206 189c125 0 190 -60 210 -189l95 -624c-47 -67 -49 -74 -49 -85c0 -12 9 -18 24 -18h25v-120h-63c-70 0 -118 43 -118 98zM291 645l-42 -299h151l-42 299c-3 23 -14 31 -33 31
c-20 0 -31 -8 -34 -31z" />
    <glyph glyph-name="ccedilla" unicode="&#xe7;" horiz-adv-x="631" 
d="M586 227c0 -138 -58 -216 -193 -235l-19 -172h-155l29 172c-138 19 -196 97 -196 235v346c0 161 80 240 269 240c187 0 265 -79 265 -240v-60h-178v77c0 66 -23 88 -87 88s-87 -22 -87 -88v-380c0 -65 23 -88 87 -88s87 23 87 88v102h178v-85z" />
    <glyph glyph-name="cacute" unicode="&#x107;" horiz-adv-x="631" 
d="M249 870l68 171h156l-90 -171h-134zM586 513h-178v77c0 66 -23 88 -87 88s-87 -22 -87 -88v-380c0 -65 23 -88 87 -88s87 23 87 88v102h178v-85c0 -161 -79 -240 -265 -240c-190 0 -269 79 -269 240v346c0 161 80 240 269 240c187 0 265 -79 265 -240v-60z" />
    <glyph glyph-name="ccaron" unicode="&#x10d;" horiz-adv-x="631" 
d="M485 1041l-76 -171h-186l-76 171h124l47 -99l46 99h121zM586 513h-178v77c0 66 -23 88 -87 88s-87 -22 -87 -88v-380c0 -65 23 -88 87 -88s87 23 87 88v102h178v-85c0 -161 -79 -240 -265 -240c-190 0 -269 79 -269 240v346c0 161 80 240 269 240c187 0 265 -79 265 -240
v-60z" />
    <glyph glyph-name="ccircumflex" unicode="&#x109;" horiz-adv-x="631" 
d="M361 870l-47 99l-46 -99h-121l76 171h186l76 -171h-124zM586 513h-178v77c0 66 -23 88 -87 88s-87 -22 -87 -88v-380c0 -65 23 -88 87 -88s87 23 87 88v102h178v-85c0 -161 -79 -240 -265 -240c-190 0 -269 79 -269 240v346c0 161 80 240 269 240c187 0 265 -79 265 -240
v-60z" />
    <glyph glyph-name="cdotaccent" unicode="&#x10b;" horiz-adv-x="631" 
d="M249 870v130h134v-130h-134zM586 513h-178v77c0 66 -23 88 -87 88s-87 -22 -87 -88v-380c0 -65 23 -88 87 -88s87 23 87 88v102h178v-85c0 -161 -79 -240 -265 -240c-190 0 -269 79 -269 240v346c0 161 80 240 269 240c187 0 265 -79 265 -240v-60z" />
    <glyph glyph-name="dcaron" unicode="&#x10f;" horiz-adv-x="664" 
d="M501 1041l-76 -171h-186l-76 171h124l47 -99l46 99h121zM351 0h-291v800h291c164 0 261 -80 261 -244v-312c0 -164 -97 -244 -261 -244zM351 665h-109v-530h109c57 0 79 26 79 94v342c0 68 -22 94 -79 94z" />
    <glyph glyph-name="dcroat" unicode="&#x111;" horiz-adv-x="689" 
d="M637 244c0 -164 -97 -244 -261 -244h-291v335h-75v135h75v330h291c164 0 261 -80 261 -244v-312zM267 135h109c57 0 79 26 79 94v342c0 68 -22 94 -79 94h-109v-195h91v-135h-91v-200z" />
    <glyph glyph-name="eacute" unicode="&#xe9;" horiz-adv-x="540" 
d="M234 870l68 171h156l-90 -171h-134zM498 135v-135h-175c-169 0 -271 84 -271 254v292c0 170 102 254 271 254h175v-135h-175c-64 0 -89 -31 -89 -84v-112h249v-135h-249v-115c0 -53 25 -84 89 -84h175z" />
    <glyph glyph-name="ecircumflex" unicode="&#xea;" horiz-adv-x="540" 
d="M346 870l-47 99l-46 -99h-121l76 171h186l76 -171h-124zM498 135v-135h-175c-169 0 -271 84 -271 254v292c0 170 102 254 271 254h175v-135h-175c-64 0 -89 -31 -89 -84v-112h249v-135h-249v-115c0 -53 25 -84 89 -84h175z" />
    <glyph glyph-name="edieresis" unicode="&#xeb;" horiz-adv-x="540" 
d="M90 870v150h147v-150h-147zM305 870v150h147v-150h-147zM498 135v-135h-175c-169 0 -271 84 -271 254v292c0 170 102 254 271 254h175v-135h-175c-64 0 -89 -31 -89 -84v-112h249v-135h-249v-115c0 -53 25 -84 89 -84h175z" />
    <glyph glyph-name="egrave" unicode="&#xe8;" horiz-adv-x="540" 
d="M300 1041l68 -171h-134l-90 171h156zM498 135v-135h-175c-169 0 -271 84 -271 254v292c0 170 102 254 271 254h175v-135h-175c-64 0 -89 -31 -89 -84v-112h249v-135h-249v-115c0 -53 25 -84 89 -84h175z" />
    <glyph glyph-name="ebreve" unicode="&#x115;" horiz-adv-x="540" 
d="M242 1036v-34c0 -31 15 -42 49 -42s49 11 49 42v34h121v-31c0 -94 -63 -150 -170 -150s-170 56 -170 150v31h121zM498 135v-135h-175c-169 0 -271 84 -271 254v292c0 170 102 254 271 254h175v-135h-175c-64 0 -89 -31 -89 -84v-112h249v-135h-249v-115
c0 -53 25 -84 89 -84h175z" />
    <glyph glyph-name="ecaron" unicode="&#x11b;" horiz-adv-x="540" 
d="M470 1041l-76 -171h-186l-76 171h124l47 -99l46 99h121zM498 135v-135h-175c-169 0 -271 84 -271 254v292c0 170 102 254 271 254h175v-135h-175c-64 0 -89 -31 -89 -84v-112h249v-135h-249v-115c0 -53 25 -84 89 -84h175z" />
    <glyph glyph-name="edotaccent" unicode="&#x117;" horiz-adv-x="540" 
d="M220 870v130h134v-130h-134zM498 135v-135h-175c-169 0 -271 84 -271 254v292c0 170 102 254 271 254h175v-135h-175c-64 0 -89 -31 -89 -84v-112h249v-135h-249v-115c0 -53 25 -84 89 -84h175z" />
    <glyph glyph-name="emacron" unicode="&#x113;" horiz-adv-x="540" 
d="M121 1002h330v-122h-330v122zM498 135v-135h-175c-169 0 -271 84 -271 254v292c0 170 102 254 271 254h175v-135h-175c-64 0 -89 -31 -89 -84v-112h249v-135h-249v-115c0 -53 25 -84 89 -84h175z" />
    <glyph glyph-name="eogonek" unicode="&#x119;" horiz-adv-x="540" 
d="M317 -125c0 38 14 68 64 125h-58c-169 0 -271 84 -271 254v292c0 170 102 254 271 254h175v-135h-175c-64 0 -89 -31 -89 -84v-112h249v-135h-249v-115c0 -53 25 -84 89 -84h175v-135c-47 -67 -49 -74 -49 -85c0 -12 9 -18 24 -18h25v-120h-63c-70 0 -118 43 -118 98z
" />
    <glyph glyph-name="gbreve" unicode="&#x11f;" horiz-adv-x="650" 
d="M277 1036v-34c0 -31 15 -42 49 -42s49 11 49 42v34h121v-31c0 -94 -63 -150 -170 -150s-170 56 -170 150v31h121zM328 419h270v-419h-160v83h-5c-27 -64 -84 -96 -166 -96c-143 0 -215 80 -215 244v338c0 154 74 244 275 244c199 0 271 -90 271 -244v-20h-178v41
c0 64 -27 88 -93 88s-93 -24 -93 -88v-380c0 -63 27 -88 96 -88c64 0 96 25 96 88v77h-98v132z" />
    <glyph glyph-name="gcircumflex" unicode="&#x11d;" horiz-adv-x="650" 
d="M371 870l-47 99l-46 -99h-121l76 171h186l76 -171h-124zM328 419h270v-419h-160v83h-5c-27 -64 -84 -96 -166 -96c-143 0 -215 80 -215 244v338c0 154 74 244 275 244c199 0 271 -90 271 -244v-20h-178v41c0 64 -27 88 -93 88s-93 -24 -93 -88v-380c0 -63 27 -88 96 -88
c64 0 96 25 96 88v77h-98v132z" />
    <glyph glyph-name="gcommaaccent" unicode="&#x123;" horiz-adv-x="650" 
d="M328 419h270v-419h-160v83h-5c-27 -64 -84 -96 -166 -96c-143 0 -215 80 -215 244v338c0 154 74 244 275 244c199 0 271 -90 271 -244v-20h-178v41c0 64 -27 88 -93 88s-93 -24 -93 -88v-380c0 -63 27 -88 96 -88c64 0 96 25 96 88v77h-98v132zM393 -159
c0 -37 -11 -67 -45 -121h-87c37 58 47 77 49 100h-51v110h134v-89z" />
    <glyph glyph-name="gdotaccent" unicode="&#x121;" horiz-adv-x="650" 
d="M259 870v130h134v-130h-134zM328 419h270v-419h-160v83h-5c-27 -64 -84 -96 -166 -96c-143 0 -215 80 -215 244v338c0 154 74 244 275 244c199 0 271 -90 271 -244v-20h-178v41c0 64 -27 88 -93 88s-93 -24 -93 -88v-380c0 -63 27 -88 96 -88c64 0 96 25 96 88v77h-98
v132z" />
    <glyph glyph-name="hbar" unicode="&#x127;" horiz-adv-x="730" 
d="M463 0v334h-196v-334h-182v579h-75v120h75v101h182v-101h196v101h182v-101h75v-120h-75v-579h-182zM267 477h196v102h-196v-102z" />
    <glyph glyph-name="hcircumflex" unicode="&#x125;" horiz-adv-x="680" 
d="M385 870l-47 99l-46 -99h-121l76 171h186l76 -171h-124zM438 0v334h-196v-334h-182v800h182v-323h196v323h182v-800h-182z" />
    <glyph glyph-name="iacute" unicode="&#xed;" horiz-adv-x="302" 
d="M84 870l68 171h156l-90 -171h-134zM60 0v800h182v-800h-182z" />
    <glyph glyph-name="icircumflex" unicode="&#xee;" horiz-adv-x="302" 
d="M196 870l-47 99l-46 -99h-121l76 171h186l76 -171h-124zM60 0v800h182v-800h-182z" />
    <glyph glyph-name="idieresis" unicode="&#xef;" horiz-adv-x="302" 
d="M-30 870v150h147v-150h-147zM185 870v150h147v-150h-147zM60 0v800h182v-800h-182z" />
    <glyph glyph-name="igrave" unicode="&#xec;" horiz-adv-x="302" 
d="M150 1041l68 -171h-134l-90 171h156zM60 0v800h182v-800h-182z" />
    <glyph glyph-name="ibreve" unicode="&#x12d;" horiz-adv-x="302" 
d="M102 1036v-34c0 -31 15 -42 49 -42s49 11 49 42v34h121v-31c0 -94 -63 -150 -170 -150s-170 56 -170 150v31h121zM60 0v800h182v-800h-182z" />
    <glyph glyph-name="i.dot" horiz-adv-x="302" 
d="M84 870v130h134v-130h-134zM60 0v800h182v-800h-182z" />
    <glyph glyph-name="imacron" unicode="&#x12b;" horiz-adv-x="302" 
d="M-14 1002h330v-122h-330v122zM60 0v800h182v-800h-182z" />
    <glyph glyph-name="iogonek" unicode="&#x12f;" horiz-adv-x="302" 
d="M61 -125c0 38 14 68 64 125h-65v800h182v-800c-47 -67 -49 -74 -49 -85c0 -12 9 -18 24 -18h25v-120h-63c-70 0 -118 43 -118 98z" />
    <glyph glyph-name="itilde" unicode="&#x129;" horiz-adv-x="302" 
d="M-14 992c25 14 56 23 81 23c65 0 109 -30 168 -30c25 0 54 8 81 22v-116c-25 -14 -56 -23 -81 -23c-64 0 -108 30 -168 30c-25 0 -54 -8 -81 -22v116zM60 0v800h182v-800h-182z" />
    <glyph glyph-name="jcircumflex" unicode="&#x135;" horiz-adv-x="616" 
d="M515 870l-47 99l-46 -99h-121l76 171h186l76 -171h-124zM379 800h182v-569c0 -163 -81 -244 -270 -244c-187 0 -266 81 -266 244v88h178v-113c0 -60 24 -84 88 -84c63 0 88 24 88 84v594z" />
    <glyph glyph-name="ij" unicode="&#x133;" horiz-adv-x="628" 
d="M293 0h-138v135h128c77 0 108 28 108 99v566h182v-556c0 -153 -95 -244 -280 -244zM242 235h-182v565h182v-565z" />
    <glyph glyph-name="kcommaaccent" unicode="&#x137;" horiz-adv-x="671" 
d="M351 332h-109v-332h-182v800h182v-333h5l204 333h182l-205 -338c133 -19 194 -101 194 -224v-238h-182v238c0 59 -25 94 -89 94zM403 -159c0 -37 -11 -67 -45 -121h-87c36 58 46 77 49 100h-51v110h134v-89z" />
    <glyph glyph-name="lacute" unicode="&#x13a;" horiz-adv-x="509" 
d="M92 870l68 171h156l-90 -171h-134zM237 800v-591c0 -50 23 -74 80 -74h172v-135h-192c-143 0 -242 83 -242 225v575h182z" />
    <glyph glyph-name="lcaron" unicode="&#x13e;" horiz-adv-x="509" 
d="M237 800v-591c0 -50 23 -74 80 -74h172v-135h-192c-143 0 -242 83 -242 225v575h182zM334 570l23 230h137l-30 -230h-130z" />
    <glyph glyph-name="lcommaaccent" unicode="&#x13c;" horiz-adv-x="509" 
d="M237 800v-591c0 -50 23 -74 80 -74h172v-135h-192c-143 0 -242 83 -242 225v575h182zM355 -159c0 -37 -11 -67 -45 -121h-87c37 58 47 77 49 100h-51v110h134v-89z" />
    <glyph glyph-name="ldot" unicode="&#x140;" horiz-adv-x="509" 
d="M237 800v-591c0 -50 23 -74 80 -74h172v-135h-192c-143 0 -242 83 -242 225v575h182zM336 360v130h134v-130h-134z" />
    <glyph glyph-name="ntilde" unicode="&#xf1;" horiz-adv-x="672" 
d="M171 992c25 14 56 23 81 23c65 0 109 -30 168 -30c25 0 54 8 81 22v-116c-25 -14 -56 -23 -81 -23c-64 0 -108 30 -168 30c-25 0 -54 -8 -81 -22v116zM237 0h-182v569c0 164 83 244 281 244s281 -80 281 -244v-569h-182v584c0 69 -28 94 -99 94s-99 -25 -99 -94v-584z
" />
    <glyph glyph-name="nacute" unicode="&#x144;" horiz-adv-x="672" 
d="M269 870l68 171h156l-90 -171h-134zM237 0h-182v569c0 164 83 244 281 244s281 -80 281 -244v-569h-182v584c0 69 -28 94 -99 94s-99 -25 -99 -94v-584z" />
    <glyph glyph-name="ncaron" unicode="&#x148;" horiz-adv-x="672" 
d="M505 1041l-76 -171h-186l-76 171h124l47 -99l46 99h121zM237 0h-182v569c0 164 83 244 281 244s281 -80 281 -244v-569h-182v584c0 69 -28 94 -99 94s-99 -25 -99 -94v-584z" />
    <glyph glyph-name="ncommaaccent" unicode="&#x146;" horiz-adv-x="672" 
d="M237 0h-182v569c0 164 83 244 281 244s281 -80 281 -244v-569h-182v584c0 69 -28 94 -99 94s-99 -25 -99 -94v-584zM403 -159c0 -37 -11 -67 -45 -121h-87c37 58 47 77 49 100h-51v110h134v-89z" />
    <glyph glyph-name="oacute" unicode="&#xf3;" 
d="M260 870l68 171h156l-90 -171h-134zM52 569c0 163 83 244 275 244c193 0 275 -81 275 -244v-338c0 -163 -83 -244 -275 -244c-193 0 -275 81 -275 244v338zM234 585v-370c0 -67 26 -94 93 -94s93 27 93 94v370c0 68 -26 94 -93 94s-93 -26 -93 -94z" />
    <glyph glyph-name="ocircumflex" unicode="&#xf4;" 
d="M372 870l-47 99l-46 -99h-121l76 171h186l76 -171h-124zM52 569c0 163 83 244 275 244c193 0 275 -81 275 -244v-338c0 -163 -83 -244 -275 -244c-193 0 -275 81 -275 244v338zM234 585v-370c0 -67 26 -94 93 -94s93 27 93 94v370c0 68 -26 94 -93 94s-93 -26 -93 -94z
" />
    <glyph glyph-name="odieresis" unicode="&#xf6;" 
d="M146 870v150h147v-150h-147zM361 870v150h147v-150h-147zM52 569c0 163 83 244 275 244c193 0 275 -81 275 -244v-338c0 -163 -83 -244 -275 -244c-193 0 -275 81 -275 244v338zM234 585v-370c0 -67 26 -94 93 -94s93 27 93 94v370c0 68 -26 94 -93 94s-93 -26 -93 -94z
" />
    <glyph glyph-name="ograve" unicode="&#xf2;" 
d="M326 1041l68 -171h-134l-90 171h156zM52 569c0 163 83 244 275 244c193 0 275 -81 275 -244v-338c0 -163 -83 -244 -275 -244c-193 0 -275 81 -275 244v338zM234 585v-370c0 -67 26 -94 93 -94s93 27 93 94v370c0 68 -26 94 -93 94s-93 -26 -93 -94z" />
    <glyph glyph-name="otilde" unicode="&#xf5;" 
d="M162 992c25 14 56 23 81 23c65 0 109 -30 168 -30c25 0 54 8 81 22v-116c-25 -14 -56 -23 -81 -23c-64 0 -108 30 -168 30c-25 0 -54 -8 -81 -22v116zM52 569c0 163 83 244 275 244c193 0 275 -81 275 -244v-338c0 -163 -83 -244 -275 -244c-193 0 -275 81 -275 244v338z
M234 585v-370c0 -67 26 -94 93 -94s93 27 93 94v370c0 68 -26 94 -93 94s-93 -26 -93 -94z" />
    <glyph glyph-name="obreve" unicode="&#x14f;" 
d="M278 1036v-34c0 -31 15 -42 49 -42s49 11 49 42v34h121v-31c0 -94 -63 -150 -170 -150s-170 56 -170 150v31h121zM52 569c0 163 83 244 275 244c193 0 275 -81 275 -244v-338c0 -163 -83 -244 -275 -244c-193 0 -275 81 -275 244v338zM234 585v-370c0 -67 26 -94 93 -94
s93 27 93 94v370c0 68 -26 94 -93 94s-93 -26 -93 -94z" />
    <glyph glyph-name="ohungarumlaut" unicode="&#x151;" 
d="M360 870l71 181h138l-68 -181h-141zM163 870l66 181h138l-63 -181h-141zM52 569c0 163 83 244 275 244c193 0 275 -81 275 -244v-338c0 -163 -83 -244 -275 -244c-193 0 -275 81 -275 244v338zM234 585v-370c0 -67 26 -94 93 -94s93 27 93 94v370c0 68 -26 94 -93 94
s-93 -26 -93 -94z" />
    <glyph glyph-name="omacron" unicode="&#x14d;" 
d="M162 1002h330v-122h-330v122zM52 569c0 163 83 244 275 244c193 0 275 -81 275 -244v-338c0 -163 -83 -244 -275 -244c-193 0 -275 81 -275 244v338zM234 585v-370c0 -67 26 -94 93 -94s93 27 93 94v370c0 68 -26 94 -93 94s-93 -26 -93 -94z" />
    <glyph glyph-name="racute" unicode="&#x155;" 
d="M260 870l68 171h156l-90 -171h-134zM60 0v800h335c130 0 202 -77 202 -174v-44c0 -74 -43 -134 -129 -155v-6c92 -23 141 -95 141 -189v-232h-175v232c0 48 -22 72 -76 72h-116v-304h-182zM355 665h-113v-227h113c40 0 67 20 67 62v103c0 42 -27 62 -67 62z" />
    <glyph glyph-name="rcaron" unicode="&#x159;" 
d="M496 1041l-76 -171h-186l-76 171h124l47 -99l46 99h121zM60 0v800h335c130 0 202 -77 202 -174v-44c0 -74 -43 -134 -129 -155v-6c92 -23 141 -95 141 -189v-232h-175v232c0 48 -22 72 -76 72h-116v-304h-182zM355 665h-113v-227h113c40 0 67 20 67 62v103
c0 42 -27 62 -67 62z" />
    <glyph glyph-name="rcommaaccent" unicode="&#x157;" 
d="M60 0v800h335c130 0 202 -77 202 -174v-44c0 -74 -43 -134 -129 -155v-6c92 -23 141 -95 141 -189v-232h-175v232c0 48 -22 72 -76 72h-116v-304h-182zM355 665h-113v-227h113c40 0 67 20 67 62v103c0 42 -27 62 -67 62zM404 -159c0 -37 -11 -67 -45 -121h-87
c37 58 47 77 49 100h-51v110h134v-89z" />
    <glyph glyph-name="scaron" unicode="&#x161;" horiz-adv-x="611" 
d="M474 1041l-76 -171h-186l-76 171h124l47 -99l46 99h121zM223 599v-25c0 -40 13 -59 63 -77l83 -30c152 -55 202 -111 202 -241v-25c0 -129 -80 -214 -265 -214s-264 76 -264 225v30h178v-41c0 -58 24 -80 86 -80s86 22 86 80v25c0 46 -15 67 -87 91l-77 26
c-139 47 -184 102 -184 227v29c0 135 80 214 263 214s262 -79 262 -234v-20h-178v40c0 57 -24 80 -84 80s-84 -23 -84 -80z" />
    <glyph glyph-name="sacute" unicode="&#x15b;" horiz-adv-x="611" 
d="M238 870l68 171h156l-90 -171h-134zM223 599v-25c0 -40 13 -59 63 -77l83 -30c152 -55 202 -111 202 -241v-25c0 -129 -80 -214 -265 -214s-264 76 -264 225v30h178v-41c0 -58 24 -80 86 -80s86 22 86 80v25c0 46 -15 67 -87 91l-77 26c-139 47 -184 102 -184 227v29
c0 135 80 214 263 214s262 -79 262 -234v-20h-178v40c0 57 -24 80 -84 80s-84 -23 -84 -80z" />
    <glyph glyph-name="scedilla" unicode="&#x15f;" horiz-adv-x="611" 
d="M571 201c0 -109 -58 -187 -188 -208l-19 -173h-155l29 171c-137 18 -196 92 -196 221v30h178v-41c0 -58 24 -80 86 -80s86 22 86 80v25c0 46 -15 67 -87 91l-77 26c-139 47 -184 102 -184 227v29c0 135 80 214 263 214s262 -79 262 -234v-20h-178v40c0 57 -24 80 -84 80
s-84 -23 -84 -80v-25c0 -40 13 -59 63 -77l83 -30c152 -55 202 -111 202 -241v-25z" />
    <glyph glyph-name="scircumflex" unicode="&#x15d;" horiz-adv-x="611" 
d="M350 870l-47 99l-46 -99h-121l76 171h186l76 -171h-124zM223 599v-25c0 -40 13 -59 63 -77l83 -30c152 -55 202 -111 202 -241v-25c0 -129 -80 -214 -265 -214s-264 76 -264 225v30h178v-41c0 -58 24 -80 86 -80s86 22 86 80v25c0 46 -15 67 -87 91l-77 26
c-139 47 -184 102 -184 227v29c0 135 80 214 263 214s262 -79 262 -234v-20h-178v40c0 57 -24 80 -84 80s-84 -23 -84 -80z" />
    <glyph glyph-name="uni0219" unicode="&#x219;" horiz-adv-x="611" 
d="M223 599v-25c0 -40 13 -59 63 -77l83 -30c152 -55 202 -111 202 -241v-25c0 -129 -80 -214 -265 -214s-264 76 -264 225v30h178v-41c0 -58 24 -80 86 -80s86 22 86 80v25c0 46 -15 67 -87 91l-77 26c-139 47 -184 102 -184 227v29c0 135 80 214 263 214s262 -79 262 -234
v-20h-178v40c0 57 -24 80 -84 80s-84 -23 -84 -80zM372 -159c0 -37 -11 -67 -45 -121h-87c37 58 47 77 49 100h-51v110h134v-89z" />
    <glyph glyph-name="tbar" unicode="&#x167;" horiz-adv-x="578" 
d="M513 329h-133v-329h-182v329h-133v131h133v205h-183v135h548v-135h-183v-205h133v-131z" />
    <glyph glyph-name="tcaron" unicode="&#x165;" horiz-adv-x="578" 
d="M458 1041l-76 -171h-186l-76 171h124l47 -99l46 99h121zM563 665h-183v-665h-182v665h-183v135h548v-135z" />
    <glyph glyph-name="uni0163" unicode="&#x163;" horiz-adv-x="578" 
d="M563 665h-183v-665h-182v665h-183v135h548v-135zM356 -159c0 -37 -11 -67 -45 -121h-87c37 58 47 77 49 100h-51v110h134v-89z" />
    <glyph glyph-name="uni021B" unicode="&#x21b;" horiz-adv-x="578" 
d="M563 665h-183v-665h-182v665h-183v135h548v-135zM356 -159c0 -37 -11 -67 -45 -121h-87c37 58 47 77 49 100h-51v110h134v-89z" />
    <glyph glyph-name="uacute" unicode="&#xfa;" horiz-adv-x="662" 
d="M264 870l68 171h156l-90 -171h-134zM425 800h182v-569c0 -164 -78 -244 -276 -244s-276 80 -276 244v569h182v-584c0 -69 23 -94 94 -94s94 25 94 94v584z" />
    <glyph glyph-name="ucircumflex" unicode="&#xfb;" horiz-adv-x="662" 
d="M376 870l-47 99l-46 -99h-121l76 171h186l76 -171h-124zM425 800h182v-569c0 -164 -78 -244 -276 -244s-276 80 -276 244v569h182v-584c0 -69 23 -94 94 -94s94 25 94 94v584z" />
    <glyph glyph-name="udieresis" unicode="&#xfc;" horiz-adv-x="662" 
d="M150 870v150h147v-150h-147zM365 870v150h147v-150h-147zM425 800h182v-569c0 -164 -78 -244 -276 -244s-276 80 -276 244v569h182v-584c0 -69 23 -94 94 -94s94 25 94 94v584z" />
    <glyph glyph-name="ugrave" unicode="&#xf9;" horiz-adv-x="662" 
d="M330 1041l68 -171h-134l-90 171h156zM425 800h182v-569c0 -164 -78 -244 -276 -244s-276 80 -276 244v569h182v-584c0 -69 23 -94 94 -94s94 25 94 94v584z" />
    <glyph glyph-name="ubreve" unicode="&#x16d;" horiz-adv-x="662" 
d="M282 1036v-34c0 -31 15 -42 49 -42s49 11 49 42v34h121v-31c0 -94 -63 -150 -170 -150s-170 56 -170 150v31h121zM425 800h182v-569c0 -164 -78 -244 -276 -244s-276 80 -276 244v569h182v-584c0 -69 23 -94 94 -94s94 25 94 94v584z" />
    <glyph glyph-name="uhungarumlaut" unicode="&#x171;" horiz-adv-x="662" 
d="M364 870l71 181h138l-68 -181h-141zM167 870l66 181h138l-63 -181h-141zM425 800h182v-569c0 -164 -78 -244 -276 -244s-276 80 -276 244v569h182v-584c0 -69 23 -94 94 -94s94 25 94 94v584z" />
    <glyph glyph-name="umacron" unicode="&#x16b;" horiz-adv-x="662" 
d="M166 1002h330v-122h-330v122zM425 800h182v-569c0 -164 -78 -244 -276 -244s-276 80 -276 244v569h182v-584c0 -69 23 -94 94 -94s94 25 94 94v584z" />
    <glyph glyph-name="uogonek" unicode="&#x173;" horiz-adv-x="658" 
d="M404 -103v-120h-63c-70 0 -118 43 -118 98c0 36 12 64 55 114c-159 14 -223 94 -223 242v569h182v-584c0 -69 23 -94 94 -94s94 25 94 94v584h182v-569c0 -144 -60 -224 -210 -241c-40 -58 -42 -65 -42 -75c0 -12 9 -18 24 -18h25z" />
    <glyph glyph-name="uring" unicode="&#x16f;" horiz-adv-x="662" 
d="M331 855c-86 0 -141 52 -141 132c0 79 55 132 141 132s141 -52 141 -132c0 -79 -55 -132 -141 -132zM331 1035c-29 0 -44 -16 -44 -48s15 -48 44 -48s44 16 44 48s-15 48 -44 48zM425 800h182v-569c0 -164 -78 -244 -276 -244s-276 80 -276 244v569h182v-584
c0 -69 23 -94 94 -94s94 25 94 94v584z" />
    <glyph glyph-name="utilde" unicode="&#x169;" horiz-adv-x="662" 
d="M166 992c25 14 56 23 81 23c65 0 109 -30 168 -30c25 0 54 8 81 22v-116c-25 -14 -56 -23 -81 -23c-64 0 -108 30 -168 30c-25 0 -54 -8 -81 -22v116zM425 800h182v-569c0 -164 -78 -244 -276 -244s-276 80 -276 244v569h182v-584c0 -69 23 -94 94 -94s94 25 94 94v584z
" />
    <glyph glyph-name="wacute" unicode="&#x1e83;" horiz-adv-x="964" 
d="M415 870l68 171h156l-90 -171h-134zM909 218c0 -146 -74 -231 -242 -231c-73 0 -142 22 -185 71c-43 -49 -112 -71 -185 -71c-168 0 -242 85 -242 231v582h182v-592c0 -57 22 -79 77 -79s77 22 77 79v592h182v-592c0 -57 22 -79 77 -79s77 22 77 79v592h182v-582z" />
    <glyph glyph-name="wcircumflex" unicode="&#x175;" horiz-adv-x="964" 
d="M527 870l-47 99l-46 -99h-121l76 171h186l76 -171h-124zM909 218c0 -146 -74 -231 -242 -231c-73 0 -142 22 -185 71c-43 -49 -112 -71 -185 -71c-168 0 -242 85 -242 231v582h182v-592c0 -57 22 -79 77 -79s77 22 77 79v592h182v-592c0 -57 22 -79 77 -79s77 22 77 79
v592h182v-582z" />
    <glyph glyph-name="wdieresis" unicode="&#x1e85;" horiz-adv-x="964" 
d="M301 870v150h147v-150h-147zM516 870v150h147v-150h-147zM909 218c0 -146 -74 -231 -242 -231c-73 0 -142 22 -185 71c-43 -49 -112 -71 -185 -71c-168 0 -242 85 -242 231v582h182v-592c0 -57 22 -79 77 -79s77 22 77 79v592h182v-592c0 -57 22 -79 77 -79s77 22 77 79
v592h182v-582z" />
    <glyph glyph-name="wgrave" unicode="&#x1e81;" horiz-adv-x="964" 
d="M481 1041l68 -171h-134l-90 171h156zM909 218c0 -146 -74 -231 -242 -231c-73 0 -142 22 -185 71c-43 -49 -112 -71 -185 -71c-168 0 -242 85 -242 231v582h182v-592c0 -57 22 -79 77 -79s77 22 77 79v592h182v-592c0 -57 22 -79 77 -79s77 22 77 79v592h182v-582z" />
    <glyph glyph-name="yacute" unicode="&#xfd;" horiz-adv-x="642" 
d="M254 870l68 171h156l-90 -171h-134zM597 559c0 -126 -57 -209 -185 -234v-325h-182v325c-129 25 -185 108 -185 234v241h180v-256c0 -66 26 -92 96 -92s96 26 96 92v256h180v-241z" />
    <glyph glyph-name="ydieresis" unicode="&#xff;" horiz-adv-x="642" 
d="M140 870v150h147v-150h-147zM355 870v150h147v-150h-147zM597 559c0 -126 -57 -209 -185 -234v-325h-182v325c-129 25 -185 108 -185 234v241h180v-256c0 -66 26 -92 96 -92s96 26 96 92v256h180v-241z" />
    <glyph glyph-name="ycircumflex" unicode="&#x177;" horiz-adv-x="642" 
d="M366 870l-47 99l-46 -99h-121l76 171h186l76 -171h-124zM597 559c0 -126 -57 -209 -185 -234v-325h-182v325c-129 25 -185 108 -185 234v241h180v-256c0 -66 26 -92 96 -92s96 26 96 92v256h180v-241z" />
    <glyph glyph-name="ygrave" unicode="&#x1ef3;" horiz-adv-x="642" 
d="M320 1041l68 -171h-134l-90 171h156zM597 559c0 -126 -57 -209 -185 -234v-325h-182v325c-129 25 -185 108 -185 234v241h180v-256c0 -66 26 -92 96 -92s96 26 96 92v256h180v-241z" />
    <glyph glyph-name="zcaron" unicode="&#x17e;" horiz-adv-x="556" 
d="M447 1041l-76 -171h-186l-76 171h124l47 -99l46 99h121zM259 135h248v-135h-265c-141 0 -212 80 -212 177c0 52 21 102 69 155l230 252c16 17 20 31 20 44c0 23 -14 37 -49 37h-251v135h265c141 0 212 -77 212 -171c0 -54 -17 -100 -70 -160l-226 -253
c-15 -17 -20 -31 -20 -44c0 -23 14 -37 49 -37z" />
    <glyph glyph-name="zacute" unicode="&#x17a;" horiz-adv-x="556" 
d="M211 870l68 171h156l-90 -171h-134zM259 135h248v-135h-265c-141 0 -212 80 -212 177c0 52 21 102 69 155l230 252c16 17 20 31 20 44c0 23 -14 37 -49 37h-251v135h265c141 0 212 -77 212 -171c0 -54 -17 -100 -70 -160l-226 -253c-15 -17 -20 -31 -20 -44
c0 -23 14 -37 49 -37z" />
    <glyph glyph-name="zdotaccent" unicode="&#x17c;" horiz-adv-x="556" 
d="M211 870v130h134v-130h-134zM259 135h248v-135h-265c-141 0 -212 80 -212 177c0 52 21 102 69 155l230 252c16 17 20 31 20 44c0 23 -14 37 -49 37h-251v135h265c141 0 212 -77 212 -171c0 -54 -17 -100 -70 -160l-226 -253c-15 -17 -20 -31 -20 -44c0 -23 14 -37 49 -37
z" />
    <glyph glyph-name="acute" unicode="&#xb4;" horiz-adv-x="500" 
d="M183 870l68 171h156l-90 -171h-134z" />
    <glyph glyph-name="grave" unicode="`" horiz-adv-x="500" 
d="M249 1041l68 -171h-134l-90 171h156z" />
    <glyph glyph-name="circumflex" unicode="&#x2c6;" horiz-adv-x="500" 
d="M295 870l-47 99l-46 -99h-121l76 171h186l76 -171h-124z" />
    <glyph glyph-name="caron" unicode="&#x2c7;" horiz-adv-x="500" 
d="M419 1041l-76 -171h-186l-76 171h124l47 -99l46 99h121z" />
    <glyph glyph-name="tilde" unicode="&#x2dc;" horiz-adv-x="500" 
d="M85 992c25 14 56 23 81 23c65 0 109 -30 168 -30c25 0 54 8 81 22v-116c-25 -14 -56 -23 -81 -23c-64 0 -108 30 -168 30c-25 0 -54 -8 -81 -22v116z" />
    <glyph glyph-name="dieresis" unicode="&#xa8;" horiz-adv-x="500" 
d="M69 870v150h147v-150h-147zM284 870v150h147v-150h-147z" />
    <glyph glyph-name="ring" unicode="&#x2da;" horiz-adv-x="500" 
d="M250 855c-86 0 -141 52 -141 132c0 79 55 132 141 132s141 -52 141 -132c0 -79 -55 -132 -141 -132zM250 1035c-29 0 -44 -16 -44 -48s15 -48 44 -48s44 16 44 48s-15 48 -44 48z" />
    <glyph glyph-name="cedilla" unicode="&#xb8;" horiz-adv-x="500" 
d="M169 -180l33 198h144l-22 -198h-155z" />
    <glyph glyph-name="hungarumlaut" unicode="&#x2dd;" horiz-adv-x="500" 
d="M283 870l71 181h138l-68 -181h-141zM86 870l66 181h138l-63 -181h-141z" />
    <glyph glyph-name="breve" unicode="&#x2d8;" horiz-adv-x="500" 
d="M201 1036v-34c0 -31 15 -42 49 -42s49 11 49 42v34h121v-31c0 -94 -63 -150 -170 -150s-170 56 -170 150v31h121z" />
    <glyph glyph-name="macron" unicode="&#xaf;" horiz-adv-x="500" 
d="M85 1002h330v-122h-330v122z" />
    <glyph glyph-name="dotaccent" unicode="&#x2d9;" horiz-adv-x="500" 
d="M183 870v130h134v-130h-134z" />
    <glyph glyph-name="periodcentered" unicode="&#xb7;" horiz-adv-x="500" 
d="M183 360v130h134v-130h-134z" />
    <glyph glyph-name="ogonek" unicode="&#x2db;" horiz-adv-x="500" 
d="M353 -103v-120h-63c-70 0 -118 43 -118 98c0 38 14 68 64 125h117c-47 -67 -49 -74 -49 -85c0 -12 9 -18 24 -18h25z" />
    <glyph glyph-name="commaaccent" unicode="&#xf6c3;" horiz-adv-x="500" 
d="M317 -159c0 -37 -11 -67 -45 -121h-87c37 58 47 77 49 100h-51v110h134v-89z" />
    <glyph glyph-name="caron.alt" horiz-adv-x="500" 
d="M173 570l23 230h137l-30 -230h-130z" />
    <glyph glyph-name="revcommaaccent" horiz-adv-x="500" 
d="M317 990v-110h-134v89c0 37 11 67 45 121h87c-37 -58 -47 -77 -49 -100h51z" />
    <glyph glyph-name="period" unicode="." horiz-adv-x="304" 
d="M60 180h184v-180h-184v180z" />
    <glyph glyph-name="comma" unicode="," horiz-adv-x="304" 
d="M244 54c0 -60 -10 -117 -53 -224h-116c39 90 51 132 53 170h-68v180h184v-126z" />
    <glyph glyph-name="colon" unicode=":" horiz-adv-x="304" 
d="M60 580h184v-180h-184v180zM60 180h184v-180h-184v180z" />
    <glyph glyph-name="semicolon" unicode=";" horiz-adv-x="304" 
d="M60 580h184v-180h-184v180zM244 54c0 -60 -10 -117 -53 -224h-116c39 90 51 132 53 170h-68v180h184v-126z" />
    <glyph glyph-name="ellipsis" unicode="&#x2026;" horiz-adv-x="920" 
d="M60 180h184v-180h-184v180zM368 180h184v-180h-184v180zM676 180h184v-180h-184v180z" />
    <glyph glyph-name="question" unicode="?" horiz-adv-x="595" 
d="M360 230h-154l-5 69c-7 91 1 128 66 166l70 41c41 24 50 40 50 79v15c0 56 -26 78 -92 78s-92 -22 -92 -84v-24h-178v10c0 152 81 233 270 233s270 -78 270 -205v-20c0 -97 -25 -142 -115 -198l-53 -33c-26 -16 -30 -23 -32 -53zM191 160h184v-160h-184v160z" />
    <glyph glyph-name="exclam" unicode="!" horiz-adv-x="304" 
d="M76 231l-16 305v264h184v-264l-16 -305h-152zM60 160h184v-160h-184v160z" />
    <glyph glyph-name="questiondown" unicode="&#xbf;" horiz-adv-x="595" 
d="M404 640h-184v160h184v-160zM235 570h154l5 -69c7 -91 -1 -128 -66 -166l-70 -41c-41 -24 -50 -40 -50 -79v-15c0 -56 26 -78 92 -78s92 22 92 84v24h178v-10c0 -152 -81 -233 -270 -233s-270 78 -270 205v20c0 97 25 142 115 198l53 33c26 16 30 23 32 53z" />
    <glyph glyph-name="exclamdown" unicode="&#xa1;" horiz-adv-x="304" 
d="M244 640h-184v160h184v-160zM60 264l16 305h152l16 -305v-264h-184v264z" />
    <glyph glyph-name="parenleft" unicode="(" horiz-adv-x="354" 
d="M334 -119h-181c-74 186 -108 342 -108 519s34 333 108 519h181c-74 -185 -109 -342 -109 -519s35 -334 109 -519z" />
    <glyph glyph-name="parenright" unicode=")" horiz-adv-x="354" 
d="M201 -119h-181c74 185 109 342 109 519s-35 334 -109 519h181c74 -186 108 -342 108 -519s-34 -333 -108 -519z" />
    <glyph glyph-name="braceleft" unicode="{" horiz-adv-x="446" 
d="M431 25v-145h-45c-161 0 -245 68 -245 214v165c0 48 -19 69 -66 69h-45v145h45c47 0 66 21 66 69v164c0 146 84 214 245 214h45v-145h-45c-47 0 -66 -21 -66 -69v-84c0 -80 -37 -135 -124 -152v-4c87 -20 124 -79 124 -167v-205c0 -48 19 -69 66 -69h45z" />
    <glyph glyph-name="braceright" unicode="}" horiz-adv-x="446" 
d="M305 94c0 -146 -84 -214 -245 -214h-45v145h45c47 0 66 21 66 69v84c0 80 37 135 124 152v4c-87 20 -124 79 -124 167v205c0 48 -19 69 -66 69h-45v145h45c161 0 245 -68 245 -214v-165c0 -48 19 -69 66 -69h45v-145h-45c-47 0 -66 -21 -66 -69v-164z" />
    <glyph glyph-name="bracketleft" unicode="[" horiz-adv-x="378" 
d="M318 775c-47 0 -66 -21 -66 -69v-612c0 -48 19 -69 66 -69h45v-145h-55c-151 0 -238 74 -238 234v572c0 160 87 234 238 234h55v-145h-45z" />
    <glyph glyph-name="bracketright" unicode="]" horiz-adv-x="378" 
d="M60 25c47 0 66 21 66 69v612c0 48 -19 69 -66 69h-45v145h55c151 0 238 -74 238 -234v-572c0 -160 -87 -234 -238 -234h-55v145h45z" />
    <glyph glyph-name="slash" unicode="/" horiz-adv-x="385" 
d="M0 -120l200 1040h185l-200 -1040h-185z" />
    <glyph glyph-name="backslash" unicode="\" horiz-adv-x="385" 
d="M185 920l200 -1040h-185l-200 1040h185z" />
    <glyph glyph-name="underscore" unicode="_" horiz-adv-x="520" 
d="M45 -52h430v-135h-430v135z" />
    <glyph glyph-name="hyphen" unicode="-" horiz-adv-x="470" 
d="M45 468h380v-135h-380v135z" />
    <glyph glyph-name="uni00AD" unicode="&#xad;" horiz-adv-x="0" 
 />
    <glyph glyph-name="endash" unicode="&#x2013;" horiz-adv-x="620" 
d="M45 468h530v-135h-530v135z" />
    <glyph glyph-name="emdash" unicode="&#x2014;" horiz-adv-x="1000" 
d="M45 468h910v-135h-910v135z" />
    <glyph glyph-name="brokenbar" unicode="&#xa6;" horiz-adv-x="302" 
d="M60 460v460h182v-460h-182zM60 -120v460h182v-460h-182z" />
    <glyph glyph-name="bar" unicode="|" horiz-adv-x="302" 
d="M60 920h182v-1040h-182v1040z" />
    <glyph glyph-name="guillemotleft" unicode="&#xab;" horiz-adv-x="611" 
d="M308 600l-112 -197l115 -203h-171l-120 200l120 200h168zM583 600l-112 -197l115 -203h-171l-120 200l120 200h168z" />
    <glyph glyph-name="guillemotright" unicode="&#xbb;" horiz-adv-x="611" 
d="M591 400l-120 -200h-168l112 197l-115 203h171zM316 400l-120 -200h-168l112 197l-115 203h171z" />
    <glyph glyph-name="guilsinglleft" unicode="&#x2039;" horiz-adv-x="336" 
d="M308 600l-112 -197l115 -203h-171l-120 200l120 200h168z" />
    <glyph glyph-name="guilsinglright" unicode="&#x203a;" horiz-adv-x="336" 
d="M316 400l-120 -200h-168l112 197l-115 203h171z" />
    <glyph glyph-name="quotesinglbase" unicode="&#x201a;" horiz-adv-x="304" 
d="M244 54c0 -60 -10 -117 -53 -224h-116c39 90 51 132 53 170h-68v180h184v-126z" />
    <glyph glyph-name="quotedblbase" unicode="&#x201e;" horiz-adv-x="573" 
d="M244 54c0 -60 -10 -117 -53 -224h-116c39 90 51 132 53 170h-68v180h184v-126zM513 54c0 -60 -10 -117 -53 -224h-116c39 90 51 132 53 170h-68v180h184v-126z" />
    <glyph glyph-name="quoteleft" unicode="&#x2018;" horiz-adv-x="304" 
d="M244 630v-180h-184v126c0 60 10 117 53 224h116c-39 -90 -51 -132 -53 -170h68z" />
    <glyph glyph-name="quotedblleft" unicode="&#x201c;" horiz-adv-x="573" 
d="M244 630v-180h-184v126c0 60 10 117 53 224h116c-39 -90 -51 -132 -53 -170h68zM513 630v-180h-184v126c0 60 10 117 53 224h116c-39 -90 -51 -132 -53 -170h68z" />
    <glyph glyph-name="quoteright" unicode="&#x2019;" horiz-adv-x="304" 
d="M244 674c0 -60 -10 -117 -53 -224h-116c39 90 51 132 53 170h-68v180h184v-126z" />
    <glyph glyph-name="quotedblright" unicode="&#x201d;" horiz-adv-x="573" 
d="M244 674c0 -60 -10 -117 -53 -224h-116c39 90 51 132 53 170h-68v180h184v-126zM513 674c0 -60 -10 -117 -53 -224h-116c39 90 51 132 53 170h-68v180h184v-126z" />
    <glyph glyph-name="quotesingle" unicode="'" horiz-adv-x="285" 
d="M59 460l-9 340h185l-7 -340h-169z" />
    <glyph glyph-name="quotedbl" unicode="&#x22;" horiz-adv-x="559" 
d="M59 460l-9 340h185l-7 -340h-169zM333 460l-9 340h185l-7 -340h-169z" />
    <glyph glyph-name="bullet" unicode="&#x2022;" horiz-adv-x="356" 
d="M45 504h266v-252h-266v252z" />
    <glyph glyph-name="ampersand" unicode="&#x26;" horiz-adv-x="662" 
d="M567 210c0 -145 -80 -223 -270 -223c-189 0 -272 81 -272 227v37c0 96 47 161 138 186v7c-86 24 -122 79 -122 149v25c0 120 80 195 263 195c184 0 262 -78 262 -223v-20h-177v35c0 53 -23 74 -85 74c-61 0 -85 -21 -85 -74v-71c0 -50 25 -74 77 -74h366v-135h-95v-115z
M297 121c67 0 92 24 92 84v120h-92c-62 0 -92 -24 -92 -74v-56c0 -53 28 -74 92 -74z" />
    <glyph glyph-name="paragraph" unicode="&#xb6;" horiz-adv-x="862" 
d="M30 609c0 106 63 191 230 191h587v-135h-95v-795h-182v795h-118v-795h-182v451h-10c-167 0 -230 85 -230 191v97z" />
    <glyph glyph-name="asterisk" unicode="*" horiz-adv-x="564" 
d="M488 405l-124 -90l-83 127l-82 -127l-124 90l96 119l-146 39l47 145l141 -54l-8 146h153l-8 -147l141 54l48 -145l-146 -39z" />
    <glyph glyph-name="trademark" unicode="&#x2122;" horiz-adv-x="864" 
d="M469 677v-271h-116v276c0 82 52 127 129 127c45 0 79 -13 105 -43c26 30 60 43 105 43c77 0 129 -45 129 -127v-276h-116v271c0 24 -10 33 -30 33c-19 0 -30 -9 -30 -33v-271h-116v271c0 24 -11 33 -30 33c-20 0 -30 -9 -30 -33zM15 800h300v-92h-92v-302h-116v302h-92
v92z" />
    <glyph glyph-name="registered" unicode="&#xae;" horiz-adv-x="868" 
d="M434 813c269 0 404 -144 404 -413c0 -271 -135 -413 -404 -413s-404 144 -404 413c0 271 135 413 404 413zM434 93c197 0 283 89 283 307c0 219 -86 307 -283 307s-283 -88 -283 -307c0 -218 86 -307 283 -307zM391 334v-149h-114v436h204c78 0 125 -37 125 -103v-13
c0 -42 -20 -77 -70 -90v-4c52 -8 78 -45 78 -100v-126h-113v119c0 19 -9 30 -30 30h-80zM496 458v39c0 21 -10 33 -34 33h-69v-105h69c24 0 34 12 34 33z" />
    <glyph glyph-name="copyright" unicode="&#xa9;" horiz-adv-x="868" 
d="M434 813c269 0 404 -144 404 -413c0 -271 -135 -413 -404 -413s-404 144 -404 413c0 271 135 413 404 413zM434 93c197 0 283 89 283 307c0 219 -86 307 -283 307s-283 -88 -283 -307c0 -218 86 -307 283 -307zM490 446v35c0 34 -11 48 -52 48s-52 -14 -52 -48v-160
c0 -34 11 -48 52 -48s52 14 52 48v36h112v-26c0 -104 -45 -150 -164 -150c-120 0 -166 46 -166 150v140c0 104 46 150 166 150s164 -46 164 -150v-25h-112z" />
    <glyph glyph-name="published" unicode="&#x24c5;" horiz-adv-x="868" 
d="M434 813c269 0 404 -144 404 -413c0 -271 -135 -413 -404 -413s-404 144 -404 413c0 271 135 413 404 413zM434 93c197 0 283 89 283 307c0 219 -86 307 -283 307s-283 -88 -283 -307c0 -218 86 -307 283 -307zM474 309h-73v-124h-114v436h187c93 0 143 -49 143 -130v-52
c0 -81 -50 -130 -143 -130zM401 524v-118h73c23 0 33 10 33 33v52c0 24 -10 33 -33 33h-73z" />
    <glyph glyph-name="at" unicode="@" horiz-adv-x="1110" 
d="M766 -33v-130h-207c-317 0 -482 139 -482 413v137c0 283 179 426 482 426c312 0 482 -143 482 -426v-55c0 -171 -89 -262 -232 -262c-80 0 -142 28 -170 91h-4c-24 -66 -67 -95 -133 -95c-81 0 -144 50 -144 169v137c0 124 67 194 201 194h202v-324c0 -37 13 -57 48 -57
c43 0 70 29 70 117v85c0 209 -97 296 -320 296c-212 0 -320 -87 -320 -296v-137c0 -201 96 -283 320 -283h207zM621 246v203h-62c-44 0 -61 -22 -61 -77v-127c0 -42 17 -64 61 -64c46 0 62 22 62 65z" />
    <glyph glyph-name="ordfeminine" unicode="&#xaa;" horiz-adv-x="460" 
d="M300 318l-12 103h-116l-12 -103h-135l49 357c13 95 65 138 156 138s143 -43 156 -138l49 -357h-135zM201 675l-18 -154h94l-18 154c-3 24 -11 32 -29 32s-26 -8 -29 -32z" />
    <glyph glyph-name="ordmasculine" unicode="&#xba;" horiz-adv-x="464" 
d="M232 813c132 0 197 -54 197 -177v-154c0 -123 -65 -177 -197 -177c-131 0 -197 54 -197 177v154c0 123 66 177 197 177zM288 462v194c0 35 -16 51 -56 51s-56 -16 -56 -51v-194c0 -35 16 -51 56 -51s56 16 56 51z" />
    <glyph glyph-name="numbersign" unicode="#" horiz-adv-x="790" 
d="M400 0l30 201h-130l-30 -201h-170l30 201h-125l21 135h124l20 131h-124l21 135h123l30 198h170l-30 -198h130l30 198h170l-30 -198h125l-20 -135h-125l-20 -131h124l-20 -135h-124l-30 -201h-170zM320 336h130l20 131h-130z" />
    <glyph glyph-name="uni2116" unicode="&#x2116;" horiz-adv-x="1119" 
d="M891 813c127 0 193 -49 193 -163v-121c0 -113 -66 -162 -193 -162c-126 0 -193 49 -193 163v120c0 114 67 163 193 163zM237 0h-182v569c0 164 83 244 281 244s281 -80 281 -244v-569h-182v584c0 69 -28 94 -99 94s-99 -25 -99 -94v-584zM944 520v140c0 39 -15 49 -53 49
s-53 -10 -53 -49v-140c0 -39 15 -49 53 -49s53 10 53 49zM717 299h348v-130h-348v130z" />
    <glyph glyph-name="Euro" unicode="&#x20ac;" horiz-adv-x="586" 
d="M561 135v-135h-175c-167 0 -268 82 -271 247h-95v122h95v65h-95v122h95c4 163 105 244 271 244h175v-135h-175c-65 0 -91 -31 -91 -84v-25h199l-15 -122h-184v-65h175l-15 -122h-160v-28c0 -53 26 -84 91 -84h175z" />
    <glyph glyph-name="dollar" unicode="$" horiz-adv-x="604" 
d="M570 220c0 -113 -58 -192 -190 -213v-107h-150v107c-132 19 -189 93 -189 220v30h178v-41c0 -58 24 -80 86 -80s86 23 86 80v10c0 48 -17 72 -97 95l-67 19c-143 41 -184 109 -184 220v20c0 118 58 193 187 213v107h150v-107c131 -20 188 -97 188 -229v-20h-178v40
c0 57 -24 80 -84 80s-84 -23 -84 -80v-10c0 -43 14 -65 73 -83l72 -22c155 -47 203 -107 203 -229v-20z" />
    <glyph glyph-name="yen" unicode="&#xa5;" horiz-adv-x="648" 
d="M605 174h-190v-174h-182v174h-190v125h190v75h-190v125h121l-139 301h185l119 -286l119 286h175l-140 -301h122v-125h-190v-75h190v-125z" />
    <glyph glyph-name="sterling" unicode="&#xa3;" horiz-adv-x="591" 
d="M561 135v-135h-526v135h26c47 0 70 24 70 74v105h-96v135h96v97c0 170 102 254 270 254h140v-135h-140c-65 0 -90 -31 -90 -84v-132h204v-135h-204v-40c0 -67 -30 -113 -90 -133v-6h340z" />
    <glyph glyph-name="cent" unicode="&#xa2;" horiz-adv-x="612" 
d="M572 332c0 -131 -56 -205 -186 -225v-107h-153v107c-134 20 -191 98 -191 235v116c0 137 57 215 191 235v107h153v-107c131 -20 186 -94 186 -225v-16h-176v23c0 66 -23 88 -87 88s-87 -22 -87 -88v-150c0 -65 23 -88 87 -88s87 23 87 88v22h176v-15z" />
    <glyph glyph-name="zero" unicode="0" 
d="M52 569c0 163 83 244 275 244c193 0 275 -81 275 -244v-338c0 -163 -83 -244 -275 -244c-193 0 -275 81 -275 244v338zM234 585v-370c0 -67 26 -94 93 -94s93 27 93 94v370c0 68 -26 94 -93 94s-93 -26 -93 -94z" />
    <glyph glyph-name="one" unicode="1" horiz-adv-x="358" 
d="M10 800h45c163 0 248 -68 248 -214v-586h-182v602c0 44 -21 63 -66 63h-45v135z" />
    <glyph glyph-name="two" unicode="2" horiz-adv-x="600" 
d="M550 135v-135h-509v102c0 160 30 215 194 316l81 50c57 35 66 56 66 107v25c0 56 -23 78 -82 78s-82 -24 -82 -84v-24h-178v10c0 152 78 233 260 233s260 -77 260 -217v-20c0 -104 -25 -157 -174 -253l-76 -49c-87 -56 -85 -67 -85 -139h325z" />
    <glyph glyph-name="three" unicode="3" horiz-adv-x="597" 
d="M567 214c0 -146 -83 -227 -272 -227c-190 0 -270 78 -270 223v20h178v-24c0 -60 25 -84 92 -84c64 0 92 21 92 74v67c0 50 -30 74 -92 74h-76v140h80c57 0 77 23 77 74v53c0 53 -24 74 -85 74c-62 0 -85 -24 -85 -84v-24h-177v20c0 145 78 223 262 223
c183 0 262 -73 262 -179v-20c0 -66 -28 -131 -136 -156v-6c98 -23 150 -89 150 -189v-49z" />
    <glyph glyph-name="four" unicode="4" horiz-adv-x="627" 
d="M577 590v-590h-180v207h-79c-166 0 -268 83 -268 231v362h182v-362c0 -71 28 -96 96 -96h69v248h180z" />
    <glyph glyph-name="five" unicode="5" horiz-adv-x="591" 
d="M63 370v430h447v-135h-278v-160h83c156 0 238 -78 238 -214v-90c0 -140 -77 -214 -260 -214c-182 0 -258 74 -258 214v29h178v-34c0 -53 20 -74 80 -74s80 21 80 74v100c0 52 -23 74 -80 74h-230z" />
    <glyph glyph-name="six" unicode="6" horiz-adv-x="636" 
d="M596 231c0 -161 -86 -244 -271 -244c-192 0 -273 81 -273 244v338c0 163 80 244 268 244s266 -79 266 -233v-10h-180v14c0 68 -23 94 -86 94c-62 0 -86 -26 -86 -94v-184h5c23 58 76 89 158 89c129 0 199 -80 199 -214v-44zM234 275v-59c0 -67 25 -94 91 -94s91 27 91 94
v59c0 50 -25 82 -90 82c-64 0 -92 -33 -92 -82z" />
    <glyph glyph-name="seven" unicode="7" horiz-adv-x="512" 
d="M15 800h250c147 0 225 -66 225 -178c0 -37 -6 -64 -20 -106l-173 -516h-196l200 571c5 16 8 29 8 41c0 34 -21 53 -64 53h-230v135z" />
    <glyph glyph-name="eight" unicode="8" horiz-adv-x="620" 
d="M590 215c0 -152 -82 -228 -280 -228s-280 76 -280 228v15c0 108 36 178 131 209v6c-79 25 -114 83 -114 160v10c0 119 77 198 263 198s263 -79 263 -198v-10c0 -77 -35 -135 -114 -160v-6c95 -31 131 -101 131 -209v-15zM310 465c66 0 91 24 91 91v32c0 63 -25 90 -91 90
s-91 -26 -91 -90v-32c0 -67 25 -91 91 -91zM310 122c74 0 103 26 103 91v33c0 67 -30 91 -103 91s-103 -24 -103 -91v-33c0 -65 29 -91 103 -91z" />
    <glyph glyph-name="nine" unicode="9" horiz-adv-x="636" 
d="M584 231c0 -163 -80 -244 -268 -244s-266 79 -266 233v10h180v-14c0 -68 23 -94 86 -94c62 0 86 26 86 94v184h-5c-23 -58 -76 -89 -158 -89c-129 0 -199 80 -199 214v44c0 161 86 244 271 244c192 0 273 -81 273 -244v-338zM402 525v59c0 67 -25 94 -91 94
s-91 -27 -91 -94v-59c0 -50 25 -82 90 -82c64 0 92 33 92 82z" />
    <glyph glyph-name="degree" unicode="&#xb0;" horiz-adv-x="454" 
d="M429 622c0 -113 -83 -191 -202 -191s-202 79 -202 191c0 113 83 191 202 191s202 -79 202 -191zM154 622c0 -48 30 -75 73 -75s73 27 73 75s-30 75 -73 75s-73 -27 -73 -75z" />
    <glyph glyph-name="percent" unicode="%" horiz-adv-x="1034" 
d="M221 813c127 0 191 -54 191 -163v-121c0 -108 -64 -162 -191 -162c-126 0 -191 54 -191 163v120c0 109 65 163 191 163zM305 0l260 800h164l-260 -800h-164zM272 523v134c0 39 -13 52 -51 52s-51 -13 -51 -52v-134c0 -39 13 -52 51 -52s51 13 51 52zM813 -13
c-127 0 -191 54 -191 163v121c0 108 64 162 191 162c126 0 191 -54 191 -163v-120c0 -109 -65 -163 -191 -163zM762 277v-134c0 -39 13 -52 51 -52s51 13 51 52v134c0 39 -13 52 -51 52s-51 -13 -51 -52z" />
    <glyph glyph-name="perthousand" unicode="&#x2030;" horiz-adv-x="1477" 
d="M221 813c127 0 191 -54 191 -163v-121c0 -108 -64 -162 -191 -162c-126 0 -191 54 -191 163v120c0 109 65 163 191 163zM305 0l260 800h164l-260 -800h-164zM272 523v134c0 39 -13 52 -51 52s-51 -13 -51 -52v-134c0 -39 13 -52 51 -52s51 13 51 52zM1256 -13
c-127 0 -191 54 -191 163v121c0 108 64 162 191 162c126 0 191 -54 191 -163v-120c0 -109 -65 -163 -191 -163zM813 -13c-127 0 -191 54 -191 163v121c0 108 64 162 191 162c126 0 191 -54 191 -163v-120c0 -109 -65 -163 -191 -163zM1205 277v-134c0 -39 13 -52 51 -52
s51 13 51 52v134c0 39 -13 52 -51 52s-51 -13 -51 -52zM762 277v-134c0 -39 13 -52 51 -52s51 13 51 52v134c0 39 -13 52 -51 52s-51 -13 -51 -52z" />
    <glyph glyph-name="asciitilde" unicode="~" horiz-adv-x="420" 
d="M45 462c25 14 56 23 81 23c65 0 109 -30 168 -30c25 0 54 8 81 22v-116c-25 -14 -56 -23 -81 -23c-64 0 -108 30 -168 30c-25 0 -54 -8 -81 -22v116z" />
    <glyph glyph-name="less" unicode="&#x3c;" horiz-adv-x="422" 
d="M387 286v-165l-357 175v193l357 175v-158l-233 -110z" />
    <glyph glyph-name="greater" unicode="&#x3e;" horiz-adv-x="422" 
d="M392 297l-357 -175v158l233 110l-233 110v165l357 -175v-193z" />
    <glyph glyph-name="asciicircum" unicode="^" horiz-adv-x="455" 
d="M293 234l-65 234l-65 -234h-153l117 357h201l117 -357h-152z" />
    </font>
</defs>
</svg>
